<?xml version="1.0" standalone="no"?>
<!DOCTYPE svg PUBLIC "-//W3C//DTD SVG 1.1//EN" "http://www.w3.org/Graphics/SVG/1.1/DTD/svg11.dtd" >
<svg xmlns="http://www.w3.org/2000/svg">
<metadata>Generated by IcoMoon</metadata>
<defs>
<font id="icomoon" horiz-adv-x="1024">
<font-face units-per-em="1024" ascent="960" descent="-64" />
<missing-glyph horiz-adv-x="1024" />
<glyph unicode="&#x20;" horiz-adv-x="512" d="" />
<glyph unicode="&#xe900;" d="M450.513 356.167h122.977v-288.058h-122.977v288.058z" />
<glyph unicode="&#xe901;" d="M745.72 733.381l85.035-58.205v141.927h-85.035z" />
<glyph unicode="&#xe902;" d="M1011.106 551.737l-121.101 82.885v212.105c0 16.36-13.264 29.625-29.625 29.625h-144.285c-16.363 0-29.625-13.264-29.625-29.625v-72.795c0 0-155.498 106.54-157.534 107.96-9.811 6.836-23.218 7.157-33.668 0l-482.374-330.155c-13.501-9.24-16.955-27.677-7.715-41.178 5.74-8.386 15.025-12.897 24.475-12.897 5.764 0 11.591 1.679 16.706 5.182l87.637 59.983v-524.342c0-16.36 13.264-29.625 29.625-29.625h696.756c16.36 0 29.625 13.264 29.625 29.625v524.345l87.637-59.983c5.118-3.503 10.941-5.182 16.706-5.182 9.448 0 18.735 4.51 24.475 12.897 9.24 13.499 5.787 31.935-7.715 41.176zM573.492 68.109h-122.977v288.058h122.977v-288.058zM830.756 68.109h-198.014v317.683c0 16.36-13.264 29.625-29.625 29.625h-182.226c-16.36 0-29.625-13.264-29.625-29.625v-317.683h-198.016v535.271l318.754 218.166 318.754-218.169v-535.269zM830.756 675.176l-85.035 58.203v83.724h85.035v-141.927z" />
<glyph unicode="&#xe903;" d="M464 876.091h-399.999c-35.201 0-64.001-28.799-64.001-63.998v-272c0-35.199 28.799-64.001 64.001-64.001h7.999c8.799 0 39.999-4 48-12.801 23.999-19.199 6.4-7.999 39.999-35.199-0.8 0.8 39.999-36.8 39.999 0v48h263.999c35.199 0 64.001 28.799 64.001 64.001v272c0 35.199-28.799 63.998-63.998 63.998z" />
<glyph unicode="&#xe904;" d="M344 724.091h616c35.199 0 64.001-28.799 64.001-64.001v-480c0-35.199-28.799-64.001-64.001-64.001h-328.002c-8.799 0-39.999-4-48-12.801-23.999-19.199-54.401-39.999-88-67.2 0.8 0.8-39.999-36.8-39.999 0v80.001h-111.999c-35.199 0-64.001 28.799-64.001 64.001v480.002c0 35.199 28.801 63.998 64.001 63.998z" />
<glyph unicode="&#xe905;" d="M831.998 524.893c-12.801-5.6-27.2-8.799-41.6-10.4 15.2 7.999 26.4 21.6 32 36.8-13.599-7.999-29.599-12.801-45.599-16-12.801 12.801-32 20.8-52.8 20.8-39.999 0-72-29.599-72-66.399 0-5.6 0.8-10.4 1.601-15.2-59.999 2.401-113.599 29.599-148.799 69.601-6.4-9.6-9.6-21.6-9.6-33.601 0-23.201 12.801-43.201 32-55.199-12.001 0-23.201 3.199-32.801 7.999v-0.8c0-32 24.799-59.201 57.6-65.599-6.4-1.601-12.801-2.401-19.199-2.401-4.8 0-8.799 0.8-13.599 1.601 8.799-26.4 36-45.599 67.2-46.4-24.799-17.601-55.999-28.799-89.6-28.799-5.6 0-11.2 0-17.601 0.8 32-19.199 69.601-29.599 110.4-29.599 132.799 0 205.599 101.599 205.599 189.601v8.799c15.198 9.598 27.198 20.796 36.798 34.397z" />
<glyph unicode="&#xe906;" d="M918.050 481.655l-406.050 313.003-406.050-313.003c-20.958-16.145-50.756-13.67-68.745 5.717v0c-20.395 21.965-17.63 56.661 5.973 75.127l434.005 339.541 34.816 32.358 34.833-32.358 434.005-339.541c23.603-18.466 26.368-53.163 5.973-75.127v0c-18.005-19.388-47.804-21.862-68.762-5.717z" />
<glyph unicode="&#xe907;" d="M512 794.658l-392.533-302.575v-513.417h785.067v513.417z" />
<glyph unicode="&#xe908;" d="M1006.933 149.333c-9.438 0-17.067-7.646-17.067-17.067v-17.067h-17.067v17.067c0 9.421-7.629 17.067-17.067 17.067s-17.067-7.646-17.067-17.067v-17.067h-34.133c-9.438 0-17.067-7.646-17.067-17.067s7.629-17.067 17.067-17.067h34.133v-51.2h-34.133c-9.438 0-17.067-7.646-17.067-17.067s7.629-17.067 17.067-17.067h34.133v-17.067c0-9.421 7.629-17.067 17.067-17.067s17.067 7.646 17.067 17.067v17.067h17.067v-17.067c0-9.421 7.629-17.067 17.067-17.067s17.067 7.646 17.067 17.067v153.6c0 9.421-7.629 17.067-17.067 17.067zM972.8 29.867v51.2h17.067v-51.2h-17.067z" />
<glyph unicode="&#xe909;" d="M119.467 81.067c9.438 0 17.067 7.646 17.067 17.067s-7.629 17.067-17.067 17.067h-34.133v17.067c0 9.421-7.629 17.067-17.067 17.067s-17.067-7.646-17.067-17.067v-17.067h-17.067v17.067c0 9.421-7.629 17.067-17.067 17.067s-17.067-7.646-17.067-17.067v-153.6c0-9.421 7.629-17.067 17.067-17.067s17.067 7.646 17.067 17.067v17.067h17.067v-17.067c0-9.421 7.629-17.067 17.067-17.067s17.067 7.646 17.067 17.067v17.067h34.133c9.438 0 17.067 7.646 17.067 17.067s-7.629 17.067-17.067 17.067h-34.133v51.2h34.133zM51.2 29.867h-17.067v51.2h17.067v-51.2z" />
<glyph unicode="&#xe90a;" d="M256 507.733h204.8v-136.533h-204.8v136.533z" />
<glyph unicode="&#xe90b;" d="M256 268.8h204.8v-170.667h-204.8v170.667z" />
<glyph unicode="&#xe90c;" d="M563.2 507.733h204.8v-136.533h-204.8v136.533z" />
<glyph unicode="&#xe90d;" d="M563.2 268.8h204.8v-290.133h-204.8v290.133z" />
<glyph unicode="&#xe90e;" d="M563.2 507.733h204.8v-102.4h-204.8v102.4z" />
<glyph unicode="&#xe90f;" d="M256 507.733h204.8v-47.189h-204.8v47.189z" />
<glyph unicode="&#xe910;" d="M375.467 200.533v68.267h-34.133v-68.267h-85.333v-34.133h85.333v-68.267h34.133v68.267h85.333v34.133z" />
<glyph unicode="&#xe911;" glyph-name="twitter" d="M1018.134 771.245c-5.213 5.213-13.904 6.952-20.858 5.213l-34.761-12.167c20.858 24.333 34.761 50.404 43.452 74.736 3.477 8.69 1.738 15.642-3.477 20.858-5.213 5.213-13.904 6.952-20.858 3.477-48.665-20.858-90.379-38.238-125.14-48.665 0-1.738-1.738 0-3.477 0-27.81 15.642-95.594 50.404-144.259 50.404-123.404-1.738-222.473-106.023-222.473-232.902v-6.952c-180.759 34.761-279.828 86.904-387.59 199.879l-17.377 17.381-10.429-20.858c-59.094-112.975-17.381-215.521 50.404-285.044-31.285 5.213-52.142 15.642-71.261 31.285-6.952 5.213-15.642 6.952-24.333 1.738-6.952-3.477-10.429-13.904-8.69-22.594 24.333-81.688 85.165-147.736 151.211-187.711-31.285 0-57.356 3.477-83.427 20.858-6.952 3.477-17.381 3.477-24.333-1.738s-10.429-13.904-6.952-22.594c31.285-88.642 92.117-135.569 189.45-147.736-50.404-29.548-116.45-53.881-218.996-55.619-10.429 0-19.119-6.952-22.594-15.642-3.477-10.429 0-19.119 6.952-26.071 62.571-50.404 201.615-79.952 373.684-79.952 305.9 0 556.182 272.877 556.182 608.324v5.213c38.238 19.119 69.523 55.619 85.165 106.023 1.736 6.954-0.002 15.644-5.215 20.858zM913.849 672.176l-10.429-3.477v-29.548c0-316.328-234.64-573.563-521.42-573.563-158.165 0-264.186 26.071-321.542 53.881 119.927 8.69 189.45 46.929 243.33 88.642l43.452 31.285h-52.142c-99.069 0-159.902 27.81-194.663 93.856 31.285-10.429 64.308-10.429 100.808-8.69 13.904 1.738 27.81 1.738 41.713 1.738l5.213 34.761c-66.046 19.119-144.259 78.213-182.498 158.163 34.761-15.642 72.998-19.119 107.759-19.119h53.881l-43.45 31.287c-36.5 26.071-144.259 118.188-92.117 250.282 111.236-109.498 217.259-159.902 408.446-194.663l20.858-3.477v48.665c0 107.759 83.427 196.402 187.711 198.14 39.975 1.738 106.023-34.761 125.14-45.19 10.429-5.213 20.858-6.952 31.285-3.477 26.071 8.69 57.356 20.858 92.117 34.761-15.642-26.071-36.5-50.404-64.308-73-6.952-5.213-8.69-15.642-5.213-24.333s13.904-12.167 22.594-8.69l67.785 22.594c-12.167-22.592-31.287-48.663-64.31-60.829z" />
<glyph unicode="&#xe912;" d="M958.136 768h-432.64l-45.030-174.2-16.166-114.484 86.658-241.69 13.914-293.278h393.266c36.368 0 65.864 29.496 65.864 65.864v691.924c-0.002 36.368-29.498 65.864-65.866 65.864z" />
<glyph unicode="&#xe913;" d="M737.392 128l-172.522-183.652-61.106 183.652 24.932 66.958z" />
<glyph unicode="&#xe914;" d="M939.13 471.652v41.74h-158.608v58.434h-41.74v-58.434h-142.942v-41.74h231.78c-12.892-27.144-35.242-70.43-65.956-116.070-28.264 35.298-46.124 59.862-46.336 60.154l-12.258 16.89-33.784-24.51 12.254-16.89c0.954-1.316 21.752-29.926 54.676-70.6-22.444-27.498-63.616-72.212-85.31-93.904l29.512-29.512c18.724 18.724 57.548 60.428 82.852 90.654 32.918-39.106 65.046-74.388 95.708-105.052l14.756-14.756 29.516 29.51-14.756 14.756c-31.678 31.678-65.038 68.528-99.294 109.598 44.266 63.646 72.96 123.912 84.4 149.732h65.53z" />
<glyph unicode="&#xe915;" d="M698.658 244.954l38.734-116.954h-671.528c-36.396 0-65.864 29.496-65.864 65.864v691.924c0 36.368 29.468 65.864 65.864 65.864h398.832l233.962-706.698z" />
<glyph unicode="&#xe916;" d="M298.602 385.252c-85.54 0-155.13 69.59-155.13 155.13s69.59 155.13 155.13 155.13c41.408 0 80.364-16.13 109.69-45.424l-29.498-29.532c-21.446 21.42-49.922 33.216-80.194 33.216-62.526 0-113.392-50.866-113.392-113.392s50.866-113.392 113.392-113.392c55.396 0 101.64 39.934 111.466 92.522h-111.462v41.74h155.13v-20.87c-0.002-85.538-69.592-155.128-155.132-155.128z" />
<glyph unicode="&#xe917;" glyph-name="twitter-logo-silhouette" d="M1024 765.477c-37.689-16.7-78.129-28.026-120.618-33.083 43.384 25.98 76.594 67.187 92.334 116.139-40.696-24.059-85.616-41.529-133.48-50.999-38.328 40.888-92.846 66.356-153.316 66.356-116.010 0-210.072-94.062-210.072-210.009 0-16.444 1.856-32.505 5.44-47.864-174.559 8.768-329.345 92.399-432.941 219.481-18.109-30.971-28.411-67.059-28.411-105.581 0-72.883 37.113-137.191 93.423-174.815-34.426 1.151-66.804 10.621-95.15 26.363v-2.624c0-101.741 72.435-186.652 168.48-205.978-17.597-4.735-36.153-7.359-55.35-7.359-13.565 0-26.683 1.344-39.544 3.904 26.746-83.505 104.301-144.228 196.188-145.893-71.859-56.31-162.466-89.776-260.879-89.776-16.956 0-33.658 1.024-50.102 2.88 92.975-59.702 203.354-94.511 321.988-94.511 386.423 0 597.648 320.069 597.648 597.648l-0.704 27.195c41.271 29.437 76.976 66.421 105.067 108.526z" />
<glyph unicode="&#xe918;" glyph-name="facebook" d="M269.883 414.618h112.247v-462.101c0-9.124 7.393-16.516 16.516-16.516h190.319c9.124 0 16.516 7.393 16.516 16.516v459.925h129.037c8.39 0 15.449 6.296 16.407 14.63l19.598 170.123c0.538 4.681-0.945 9.368-4.076 12.879-3.135 3.515-7.621 5.526-12.328 5.526h-148.632v106.641c0 32.147 17.309 48.448 51.451 48.448 4.866 0 97.181 0 97.181 0 9.124 0 16.516 7.396 16.516 16.516v156.157c0 9.124-7.393 16.516-16.516 16.516h-133.929c-0.945 0.046-3.042 0.122-6.134 0.122-23.238 0-104.012-4.562-167.817-63.26-70.696-65.047-60.869-142.931-58.52-156.434v-124.703h-117.836c-9.124 0-16.516-7.393-16.516-16.516v-167.949c0-9.124 7.393-16.519 16.516-16.519z" />
<glyph unicode="&#xe919;" d="M511.829 89.455c-197.648 0-358.46 160.812-358.46 358.46s160.812 358.46 358.46 358.46 358.46-160.812 358.46-358.46-160.795-358.46-358.46-358.46z" />
<glyph unicode="&#xe91a;" d="M511.829 703.957c-9.422 0-17.070 7.63-17.070 17.070v34.139c0 9.439 7.647 17.070 17.070 17.070s17.070-7.63 17.070-17.070v-34.139c0-9.439-7.647-17.070-17.070-17.070z" />
<glyph unicode="&#xe91b;" d="M511.829 123.594c-9.422 0-17.070 7.63-17.070 17.070v34.139c0 9.439 7.647 17.070 17.070 17.070s17.070-7.63 17.070-17.070v-34.139c0-9.439-7.647-17.070-17.070-17.070z" />
<glyph unicode="&#xe91c;" d="M819.081 430.845h-34.139c-9.422 0-17.070 7.63-17.070 17.070s7.647 17.070 17.070 17.070h34.139c9.422 0 17.070-7.63 17.070-17.070s-7.647-17.070-17.070-17.070z" />
<glyph unicode="&#xe91d;" d="M238.717 430.845h-34.139c-9.422 0-17.070 7.63-17.070 17.070s7.647 17.070 17.070 17.070h34.139c9.422 0 17.070-7.63 17.070-17.070s-7.647-17.070-17.070-17.070z" />
<glyph unicode="&#xe91e;" d="M511.829 396.706c-37.655 0-68.278 30.623-68.278 68.278s30.623 68.278 68.278 68.278c37.655 0 68.278-30.623 68.278-68.278s-30.606-68.278-68.278-68.278zM511.829 499.123c-18.828 0-34.139-15.311-34.139-34.139s15.311-34.139 34.139-34.139c18.828 0 34.139 15.311 34.139 34.139s-15.311 34.139-34.139 34.139z" />
<glyph unicode="&#xe91f;" d="M511.829 499.123c-9.422 0-17.070 7.63-17.070 17.070v102.417c0 9.439 7.647 17.070 17.070 17.070s17.070-7.63 17.070-17.070v-102.417c0-9.439-7.647-17.070-17.070-17.070z" />
<glyph unicode="&#xe920;" d="M324.065 260.15c-4.37 0-8.74 1.673-12.068 5.001-6.674 6.674-6.674 17.462 0 24.136l151.56 151.56c6.674 6.674 17.462 6.674 24.136 0s6.674-17.462 0-24.136l-151.56-151.56c-3.311-3.329-7.698-5.001-12.068-5.001z" />
<glyph unicode="&#xe921;" d="M1006.845 430.845c-9.422 0-17.070 7.63-17.070 17.070 0 263.536-214.41 477.946-477.946 477.946-123.191 0-240.253-46.941-329.612-132.152-6.811-6.503-17.633-6.247-24.136 0.563-6.503 6.828-6.247 17.633 0.58 24.136 95.743 91.305 221.187 141.592 353.168 141.592 282.364 0 512.085-229.721 512.085-512.085 0-9.439-7.647-17.070-17.070-17.070z" />
<glyph unicode="&#xe922;" d="M306.995 789.305h-153.626v153.626c0 9.439 7.647 17.070 17.070 17.070s17.070-7.63 17.070-17.070v-119.487h119.487c9.422 0 17.070-7.63 17.070-17.070s-7.647-17.070-17.070-17.070z" />
<glyph unicode="&#xe923;" d="M504.336-47.272c-0.171 9.388 7.34 17.24 16.728 17.411 9.388 0.188 17.24-7.34 17.411-16.728 0.171-9.559-7.34-17.223-16.728-17.411h-0.341c-9.235 0-16.916 7.34-17.070 16.728zM468.814-62.293v-0.154c-9.388 0.836-16.387 9.030-15.533 18.589 0.683 9.388 9.047 16.387 18.435 15.55 9.388-0.871 16.216-9.064 15.533-18.435-0.683-8.893-8.193-15.704-17.070-15.704-0.341 0-0.853 0-1.366 0.154zM555.544-45.377c-1.195 9.218 5.462 17.752 14.85 18.93 9.388 1.195 17.923-5.445 18.947-14.85 1.195-9.388-5.462-17.923-14.85-19.118v0.171c-0.683-0.171-1.366-0.171-2.048-0.171-8.552 0-15.875 6.316-16.899 15.038zM416.428-55.277c-9.388 1.861-15.363 10.737-13.656 19.954 1.707 9.388 10.754 15.363 19.971 13.656 9.218-1.69 15.363-10.754 13.656-19.971-1.707-8.193-8.876-13.826-16.899-13.826-1.041 0-2.048 0-3.073 0.188zM606.224-38.396c-2.219 9.218 3.585 18.435 12.802 20.483s18.264-3.585 20.483-12.802c2.048-9.218-3.755-18.435-12.802-20.483-1.366-0.341-2.56-0.341-3.926-0.341-7.681 0-14.85 5.292-16.557 13.144zM364.878-42.663c-9.047 2.731-13.997 12.29-11.437 21.337 2.731 8.876 12.29 13.997 21.337 11.266 9.047-2.543 14.168-12.119 11.437-21.149-2.219-7.357-9.047-12.136-16.387-12.136-1.553 0-3.243 0.171-4.95 0.683zM655.896-26.106c-3.073 9.047 1.707 18.776 10.583 21.678 8.876 3.090 18.606-1.536 21.678-10.583 3.073-8.876-1.707-18.606-10.583-21.678-1.878-0.512-3.755-0.836-5.633-0.836-6.981 0-13.639 4.421-16.045 11.42zM315.035-24.911c-8.705 3.772-12.802 13.673-9.047 22.361 3.585 8.705 13.485 12.802 22.19 9.218s12.802-13.639 9.218-22.361c-2.731-6.486-9.047-10.412-15.704-10.412-2.236 0-4.438 0.341-6.657 1.195zM704.032-8.524c-3.926 8.535-0.341 18.623 8.364 22.532 8.535 4.097 18.606 0.358 22.532-8.176 4.097-8.535 0.341-18.794-8.193-22.702-2.39-1.041-4.779-1.536-7.169-1.536-6.486 0-12.614 3.585-15.533 9.883zM267.411-1.867c-8.364 4.438-11.437 14.868-6.998 23.044 4.609 8.364 15.021 11.437 23.215 6.828 8.364-4.421 11.437-14.85 6.828-23.044-3.073-5.804-8.876-9.030-15.021-9.030-2.731 0-5.462 0.683-8.023 2.202zM750.12 13.837c-4.95 8.023-2.219 18.435 5.804 23.385 8.193 4.779 18.606 2.065 23.385-5.974 4.95-8.023 2.219-18.606-5.804-23.385-2.731-1.707-5.804-2.39-8.705-2.39-5.804 0-11.59 2.902-14.68 8.364zM222.16 25.803c-7.681 5.445-9.73 16.028-4.267 23.71 5.292 7.852 15.875 9.73 23.727 4.438 7.681-5.292 9.73-16.045 4.267-23.727-3.243-4.779-8.535-7.323-13.997-7.323-3.414 0-6.657 0.836-9.73 2.902zM793.647 40.807c-5.633 7.511-4.097 18.264 3.414 23.897s18.264 4.097 23.897-3.585c5.633-7.511 4.097-18.247-3.585-23.897-2.902-2.202-6.486-3.243-10.071-3.243-5.292 0-10.395 2.219-13.656 6.828zM180.169 58.047v0c-7.169 6.162-8.023 16.899-1.878 24.068s16.899 8.023 24.068 1.895c7.169-6.162 8.023-16.916 1.878-24.068-3.414-3.943-8.193-5.991-12.973-5.991-3.909 0-7.852 1.366-11.095 4.097zM834.102 72.044c-6.486 7.016-5.974 17.769 1.024 24.239v-0.154c6.828 6.486 17.752 5.957 24.068-1.041 6.316-6.811 5.974-17.582-1.024-24.068-3.243-2.902-7.34-4.438-11.437-4.438-4.592 0-9.2 1.895-12.631 5.462zM141.762 94.405c-6.486 6.828-6.316 17.582 0.512 24.068s17.582 6.316 24.068-0.512c6.657-6.811 6.316-17.565-0.512-24.068-3.243-3.243-7.511-4.779-11.778-4.779-4.438 0-9.047 1.707-12.29 5.292zM871.143 107.378c-6.998 6.316-7.681 17.070-1.366 24.068 6.145 7.169 16.899 7.681 24.068 1.536 6.998-6.299 7.681-17.070 1.366-24.051-3.414-3.943-8.023-5.821-12.802-5.821-3.926 0-8.006 1.366-11.266 4.267zM107.111 134.535c-5.804 7.323-4.438 18.077 3.073 23.88s18.094 4.438 23.897-3.073c5.804-7.323 4.438-18.094-2.902-23.897-3.243-2.39-6.828-3.585-10.583-3.585-4.95 0-10.054 2.219-13.485 6.674zM904.428 146.296c-7.681 5.462-9.388 16.216-3.926 23.897 5.462 7.511 16.216 9.388 23.897 3.926 7.681-5.633 9.388-16.216 3.926-23.88-3.414-4.626-8.535-7.169-13.997-7.169-3.414 0-6.811 1.007-9.9 3.226zM76.898 177.892c-4.95 8.006-2.56 18.418 5.462 23.556 8.023 4.95 18.606 2.543 23.556-5.479 4.95-8.006 2.56-18.606-5.462-23.556-2.902-1.707-5.974-2.56-9.047-2.56-5.633 0-11.266 2.902-14.509 8.040zM933.617 188.458c-8.193 4.609-11.095 15.038-6.316 23.215h-0.171c4.779 8.21 15.192 11.112 23.385 6.486 8.193-4.779 11.095-15.192 6.316-23.385-3.073-5.445-8.876-8.535-14.85-8.535-2.902 0-5.804 0.683-8.364 2.219zM51.294 224.15v0c-4.097 8.535-0.683 18.759 7.852 22.856s18.606 0.7 22.873-7.835c4.097-8.535 0.512-18.794-8.023-22.873-2.39-1.212-4.95-1.724-7.34-1.724-6.316 0-12.461 3.585-15.363 9.576zM958.197 233.368c-8.705 3.738-12.631 13.826-8.705 22.515 3.755 8.535 13.826 12.461 22.532 8.705 8.535-3.755 12.461-13.826 8.705-22.532-2.902-6.316-9.047-10.242-15.704-10.242-2.219 0-4.609 0.512-6.828 1.553zM30.657 272.952c-3.243 8.893 1.195 18.606 10.071 21.849s18.776-1.366 21.849-10.225c3.243-8.893-1.195-18.623-10.071-21.866-2.048-0.683-3.926-1.024-5.974-1.024-6.845 0-13.485 4.267-15.875 11.266zM978.015 280.463c-8.876 2.902-13.826 12.649-10.924 21.508 2.731 9.047 12.461 14.014 21.337 11.112 9.047-2.902 13.997-12.478 11.095-21.525-2.39-7.169-9.047-11.778-16.216-11.778-1.724 0-3.585 0.171-5.292 0.683zM15.107 323.478c-2.39 9.218 3.243 18.435 12.29 20.654 9.218 2.407 18.435-3.243 20.825-12.29 2.219-9.218-3.414-18.435-12.461-20.825-1.366-0.341-2.731-0.512-4.097-0.512-7.681 0-14.68 5.292-16.557 12.973zM992.865 329.623c-9.218 1.895-15.192 10.924-13.144 20.142 1.878 9.218 10.924 15.209 20.142 13.161 9.218-1.895 15.192-10.942 13.144-20.159-1.536-8.023-8.705-13.485-16.557-13.485-1.212 0-2.407 0-3.585 0.341zM4.865 375.54c-1.366 9.218 5.121 17.94 14.509 19.306 9.218 1.348 17.923-5.138 19.289-14.526s-5.121-17.923-14.509-19.289c-0.853-0.171-1.536-0.171-2.39-0.171-8.364 0-15.687 6.145-16.899 14.68zM1002.424 379.807c-9.388 1.024-16.216 9.405-15.192 18.776 1.024 9.388 9.388 16.233 18.776 15.192 9.388-0.853 16.216-9.388 15.192-18.606-0.853-8.859-8.364-15.363-16.899-15.363h-1.878zM0.085 428.114c-0.341 9.559 6.998 17.411 16.387 17.752s17.411-6.998 17.752-16.387c0.341-9.388-6.998-17.411-16.387-17.752h-0.683c-9.030 0-16.728 7.357-17.070 16.387zM989.776 447.915v0c0 9.388 7.681 17.070 17.070 17.070s17.070-7.681 17.070-17.070-7.681-17.070-17.070-17.070c-9.371 0-17.070 7.681-17.070 17.070z" />
<glyph unicode="&#xe924;" d="M977.796 437.636c0-257.257-208.548-465.805-465.805-465.805s-465.805 208.548-465.805 465.805c0 257.257 208.548 465.805 465.805 465.805s465.805-208.548 465.805-465.805z" />
<glyph unicode="&#xe925;" d="M780.725 437.636c0-148.417-120.316-268.733-268.733-268.733s-268.733 120.316-268.733 268.733c0 148.417 120.316 268.733 268.733 268.733s268.733-120.316 268.733-268.733z" />
<glyph unicode="&#xe926;" d="M225.342-64c-4.586 0-9.173 1.756-12.666 5.249-7.005 7.005-7.005 18.328 0 25.333l70.462 70.462c7.005 7.005 18.328 7.005 25.333 0s7.005-18.328 0-25.333l-70.462-70.462c-3.494-3.494-8.080-5.249-12.666-5.249z" />
<glyph unicode="&#xe927;" d="M798.64-64c-4.586 0-9.173 1.756-12.666 5.249l-70.999 70.999c-7.005 7.005-7.005 18.328 0 25.333s18.328 7.005 25.333 0l70.999-70.999c7.005-7.005 7.005-18.328 0-25.333-3.494-3.494-8.080-5.249-12.666-5.249z" />
<glyph unicode="&#xe928;" d="M836.155 756.282c-4.586 0-9.173 1.756-12.666 5.249-7.005 7.005-7.005 18.328 0 25.333l53.747 53.747c7.005 7.005 18.328 7.005 25.333 0s7.005-18.328 0-25.333l-53.747-53.747c-3.511-3.511-8.098-5.249-12.666-5.249z" />
<glyph unicode="&#xe929;" d="M187.845 756.282c-4.586 0-9.173 1.756-12.666 5.249l-53.747 53.747c-7.005 7.005-7.005 18.328 0 25.333s18.328 7.005 25.333 0l53.747-53.747c7.005-7.005 7.005-18.328 0-25.333-3.494-3.511-8.080-5.249-12.666-5.249z" />
<glyph unicode="&#xe92a;" d="M511.991-64c-276.598 0-501.636 225.037-501.636 501.636s225.037 501.636 501.636 501.636 501.636-225.037 501.636-501.636-225.020-501.636-501.636-501.636zM511.991 867.609c-237.095 0-429.974-192.897-429.974-429.974s192.879-429.974 429.974-429.974 429.974 192.897 429.974 429.974-192.879 429.974-429.974 429.974z" />
<glyph unicode="&#xe92b;" d="M511.991 851.862c-9.889 0-17.916-8.008-17.916-17.916v-17.916c0-9.907 8.026-17.916 17.916-17.916s17.916 8.008 17.916 17.916v17.916c0 9.907-8.008 17.916-17.916 17.916z" />
<glyph unicode="&#xe92c;" d="M511.991 81.492c-9.889 0-17.916-8.008-17.916-17.916v-17.916c0-9.907 8.026-17.916 17.916-17.916s17.916 8.008 17.916 17.916v17.916c0 9.907-8.008 17.916-17.916 17.916z" />
<glyph unicode="&#xe92d;" d="M906.133 457.719h-17.916c-9.889 0-17.916-8.008-17.916-17.916s8.026-17.916 17.916-17.916h17.916c9.889 0 17.916 8.008 17.916 17.916s-8.008 17.916-17.916 17.916z" />
<glyph unicode="&#xe92e;" d="M135.764 457.719h-17.916c-9.889 0-17.916-8.008-17.916-17.916s8.026-17.916 17.916-17.916h17.916c9.889 0 17.916 8.008 17.916 17.916s-8.008 17.916-17.916 17.916z" />
<glyph unicode="&#xe92f;" d="M778.019 731.182l-12.666-12.666c-7.005-7.005-7.005-18.328 0-25.333 3.494-3.494 8.080-5.249 12.666-5.249s9.173 1.756 12.666 5.249l12.666 12.666c7.005 7.005 7.005 18.328 0 25.333s-18.328 7.005-25.333 0z" />
<glyph unicode="&#xe930;" d="M233.296 186.442l-12.666-12.666c-7.005-7.005-7.005-18.328 0-25.333 3.494-3.494 8.080-5.249 12.666-5.249s9.173 1.756 12.666 5.249l12.666 12.666c7.005 7.005 7.005 18.328 0 25.333s-18.328 6.987-25.333 0z" />
<glyph unicode="&#xe931;" d="M790.686 186.442c-7.005 7.005-18.328 7.005-25.333 0s-7.005-18.328 0-25.333l12.666-12.666c3.494-3.494 8.080-5.249 12.666-5.249s9.173 1.756 12.666 5.249c7.005 7.005 7.005 18.328 0 25.333l-12.666 12.666z" />
<glyph unicode="&#xe932;" d="M245.963 731.182c-7.005 7.005-18.328 7.005-25.333 0s-7.005-18.328 0-25.333l12.666-12.666c3.494-3.494 8.080-5.249 12.666-5.249s9.173 1.756 12.666 5.249c7.005 7.005 7.005 18.328 0 25.333l-12.666 12.666z" />
<glyph unicode="&#xe933;" d="M709.062 419.72h-143.325c-9.889 0-17.916 8.008-17.916 17.916s8.026 17.916 17.916 17.916h143.325c9.889 0 17.916-8.008 17.916-17.916s-8.008-17.916-17.916-17.916z" />
<glyph unicode="&#xe934;" d="M511.991 473.467c-9.889 0-17.916 8.008-17.916 17.916v197.071c0 9.907 8.026 17.916 17.916 17.916s17.916-8.008 17.916-17.916v-197.071c0-9.889-8.008-17.916-17.916-17.916z" />
<glyph unicode="&#xe935;" d="M511.991 365.974c-39.522 0-71.662 32.141-71.662 71.662s32.141 71.662 71.662 71.662 71.662-32.141 71.662-71.662-32.141-71.662-71.662-71.662zM511.991 473.467c-19.761 0-35.831-16.070-35.831-35.831s16.070-35.831 35.831-35.831 35.831 16.070 35.831 35.831-16.070 35.831-35.831 35.831z" />
<glyph unicode="&#xe936;" d="M976.273 922.628c49.823-49.823 49.823-130.604 0-180.428l-180.446 180.428c49.841 49.823 130.604 49.823 180.446 0z" />
<glyph unicode="&#xe937;" d="M47.727 922.628c-49.823-49.823-49.823-130.604 0-180.428l180.428 180.428c-49.823 49.823-130.604 49.823-180.428 0z" />
<glyph unicode="&#xe938;" glyph-name="facebook-like-hand-symbol-outline" d="M571.825 673.647c-1.975 0-3.971 0.279-5.946 0.837-11.355 3.284-17.945 15.198-14.683 26.575 6.633 22.818 15.992 97.562 19.083 124.437 1.331 11.806 12.064 20.349 23.741 18.89 11.806-1.331 20.242-11.978 18.89-23.741-1.159-10.261-11.677-101.061-20.457-131.477-2.726-9.402-11.312-15.52-20.629-15.52zM738.721 679.4c-0.902 0-1.825 0.064-2.748 0.172-11.763 1.503-20.070 12.257-18.568 24.020 0.086 0.558 7.105 56.369 3.477 105.118-0.88 11.828 7.985 22.11 19.813 22.99 12.064 0.944 22.11-8.007 22.99-19.813 3.971-53.192-3.37-111.343-3.714-113.768-1.374-10.819-10.604-18.718-21.251-18.718zM742.263 785.484c-11.355 0-20.865 8.908-21.423 20.392-1.159 22.99-4.851 55.382-23.419 71.202-10.325 8.822-24.986 12.064-44.541 9.853-21.509-2.383-32.885-12.922-39.368-66.308-1.395-11.785-12.021-20.135-23.891-18.74-11.785 1.438-20.135 12.128-18.718 23.891 4.078 33.744 11.699 96.531 77.277 103.83 31.576 3.52 57.55-3.134 77.126-19.856 31.254-26.596 36.921-70.815 38.467-101.747 0.58-11.849-8.5-21.916-20.371-22.518-0.408 0-0.773 0-1.138 0zM931.268 530.901h-222.728c-11.871 0-21.466 9.595-21.466 21.466s9.595 21.466 21.466 21.466h222.728c11.892 0 21.466-9.595 21.466-21.466s-9.574-21.466-21.466-21.466zM931.268 388.132c-11.871 0-21.466 9.595-21.466 21.466s9.595 21.466 21.466 21.466c27.455 0 49.8 22.389 49.8 49.886 0 27.519-22.346 49.929-49.8 49.929-11.871 0-21.466 9.595-21.466 21.466s9.595 21.466 21.466 21.466c51.131 0 92.732-41.643 92.732-92.861 0-51.196-41.601-92.818-92.732-92.818zM911.241 248.219c-11.871 0-21.466 9.595-21.466 21.466 0 11.892 9.595 21.466 21.466 21.466 27.455 0 49.8 22.389 49.8 49.843 0 21.916-14.597 41.601-35.418 47.847-11.355 3.413-17.795 15.412-14.382 26.725 3.435 11.355 15.348 17.731 26.746 14.403 39.475-11.892 65.986-47.654 65.986-88.997 0-51.131-41.601-92.753-92.732-92.753zM890.376 108.198c-11.892 0-21.466 9.595-21.466 21.466s9.574 21.466 21.466 21.466c27.433 0 49.779 22.367 49.779 49.843 0 22.088-14.747 41.794-35.848 47.911-11.377 3.284-17.945 15.176-14.661 26.575 3.263 11.377 15.133 17.881 26.575 14.683 39.368-11.398 66.823-48.083 66.823-89.169 0.043-51.153-41.579-92.775-92.667-92.775zM869.168-32.317c-11.892 0-21.466 9.574-21.466 21.466s9.574 21.466 21.466 21.466c27.476 0 49.822 22.367 49.822 49.822 0 22.002-14.039 41.171-34.968 47.697-11.312 3.52-17.645 15.584-14.124 26.875 3.477 11.291 15.52 17.58 26.875 14.124 38.939-12.085 65.148-47.783 65.148-88.696 0-51.153-41.601-92.753-92.753-92.753zM653.373-34.528c-52.655 0-104.323 0.451-141.266 1.717-54.48 1.846-98.571 43.94-130.769 74.679-10.389 9.939-20.199 19.276-27.948 24.9-9.574 6.998-11.699 20.414-4.722 30.009 6.998 9.552 20.392 11.656 29.988 4.701 10.046-7.298 20.865-17.623 32.327-28.592 28.7-27.369 64.419-61.499 102.563-62.809 109.754-3.735 352.81 0.043 355.279 0.043 10.905 0.301 21.594-9.295 21.809-21.101 0.193-11.849-9.273-21.616-21.122-21.831-1.61 0.021-110.742-1.717-216.138-1.717zM708.819 530.901c-3.993 0-7.964 1.095-11.527 3.37-10.024 6.375-12.944 19.663-6.547 29.644v0c-0.043 0 16.786 31.039 26.36 139.291 1.052 11.806 11.334 20.521 23.269 19.491 11.806-1.052 20.543-11.463 19.469-23.269-10.389-118.212-29.236-152.879-32.907-158.632-4.1-6.397-11.012-9.896-18.117-9.896zM361.182 375.060c-11.871 0-21.466 9.595-21.466 21.466 0 10.497 7.556 19.255 17.516 21.101 24.492 12.901 163.655 159.533 193.728 281.652 2.855 11.506 14.575 18.589 25.974 15.691 11.506-2.833 18.546-14.468 15.67-25.974-32.563-132.358-191.238-313.936-231.422-313.936zM297.257-34.12h-207.359c-49.564 0-89.898 45.099-89.898 100.524v300.756c0 55.424 40.334 100.524 89.898 100.524h207.359c49.543 0 89.855-45.099 89.855-100.524v-300.777c-0.021-55.403-40.334-100.502-89.855-100.502zM89.898 424.753c-25.909 0-46.967-25.845-46.967-57.592v-300.777c0-31.748 21.058-57.614 46.967-57.614h207.359c25.866 0 46.924 25.845 46.924 57.614v300.777c0 31.748-21.036 57.592-46.924 57.592h-207.359zM170.459 53.503c-5.645 0-11.098 2.962-14.039 8.2-26.897 47.761-34.431 72.833-29.966 99.343 4.1 24.342 29.751 47.997 59.782 43.726 13.845-2.039 26.102-9.338 34.474-20.607 8.372-11.227 11.849-25.072 9.81-38.896-1.288-8.801-9.381-14.747-18.289-13.588-8.801 1.309-14.876 9.445-13.588 18.289 0.794 5.323-0.537 10.647-3.778 15.005s-7.985 7.17-13.373 7.964c-10.497 1.674-21.788-8.136-23.333-17.258-2.64-15.691 0.751-32.8 26.274-78.178 4.358-7.749 1.61-17.559-6.118-21.916-2.469-1.438-5.195-2.082-7.856-2.082zM178.938 46.226c-1.996 0-4.036 0.386-5.989 1.181-10.711 4.25-15.112 11.398-18.718 18.353-4.078 7.878-1.009 17.602 6.89 21.702 7.921 4.078 17.602 0.987 21.702-6.89 1.309-2.511 1.825-3.22 1.975-3.392 8.264-3.306 12.321-12.579 9.037-20.865-2.533-6.311-8.522-10.089-14.897-10.089zM190.036 45.303c-7.084 0-13.588 4.722-15.541 11.892-2.34 8.565 2.726 17.43 11.291 19.77 50.187 13.717 64.783 23.312 74.121 36.234 5.345 7.47 4.508 22.131-4.143 28.635-4.358 3.306-9.724 4.637-15.069 3.971-5.366-0.73-10.11-3.542-13.352-7.814-5.366-7.127-15.455-8.522-22.539-3.155-7.105 5.345-8.522 15.455-3.155 22.539 8.436 11.184 20.714 18.396 34.581 20.328 13.91 1.91 27.712-1.61 38.896-10.11 24.299-18.267 25.265-53.213 10.883-73.155-15.97-22.11-38.252-33.873-91.744-48.512-1.417-0.408-2.855-0.623-4.229-0.623zM185.356 44.788c-3.907 0-8.114 0.73-12.815 2.748-8.178 3.52-11.956 12.965-8.457 21.144 3.52 8.178 12.965 11.913 21.144 8.457 0.301-0.215 1.159 0 3.842 0.837 8.543 2.576 17.516-2.147 20.156-10.604 2.619-8.5-2.125-17.495-10.604-20.135-4.1-1.309-8.457-2.447-13.266-2.447z" />
<glyph unicode="&#xe939;" glyph-name="level-up-arrow" d="M798.491 595.257v-516.318c0-54.455-44.124-98.579-98.579-98.579h-601.332c-54.455 0-98.579 44.124-98.579 98.579s44.124 98.579 98.579 98.579h502.753v417.739h-218.096l320.382 320.382 320.382-320.382h-225.509z" />
<glyph unicode="&#xe93a;" d="M513.201 959.27c-282.351 0-513.201-211.958-513.201-473.403 0-148.966 74.97-281.864 188.585-368.65v-180.486l176.055 95.534c46.452-12.871 96.638-19.802 147.603-19.802 282.351 0 511.757 211.958 511.757 473.403s-228.448 473.403-510.799 473.403zM564.036 321.757l-130.22 138.871-254.044-138.871 279.462 296.666 133.368-138.871 250.879 138.871-279.445-296.666z" />
<glyph unicode="&#xe93b;" d="M513.201 920.137c-282.351 0-513.201-172.809-513.201-434.271 0-148.966 74.97-281.864 188.585-368.65v-180.486l176.055 95.534c46.452-12.871 96.638-19.802 147.603-19.802 282.351 0 511.757 211.958 511.757 473.403s-228.448 434.271-510.799 434.271zM564.036 321.757l-130.22 138.871-254.044-138.871 279.462 296.666 133.368-138.871 250.879 138.871-279.445-296.666z" />
<glyph unicode="&#xe93c;" d="M813.698 601.933l-238.722-104.023 17.627-18.341z" />
<glyph unicode="&#xe93d;" d="M837.882 612.483l-273.846-290.726-114.102 121.666-234.697-102.27-35.464-19.396 6.281 6.671-130.95-56.223c32.948-60.151 77.94-113.291 133.482-154.988v-180.486l176.055 95.534c46.452-12.871 96.638-19.802 147.603-19.802 282.351 0 511.757 211.958 511.757 473.403 0 67.342-17.789 130.138-45.154 188.131l-140.964-61.515z" />
<glyph unicode="&#xe93e;" glyph-name="level-up" d="M873.328 664.523l-232.891 279.468c-8.738 10.665-20.638 16.008-35.652 16.008-15.037 0-26.929-5.335-35.662-16.008l-232.894-279.468c-12.61-15.052-14.79-31.535-6.546-49.488 8.736-17.956 22.817-26.934 42.218-26.934h139.744v-465.78h-232.894c-7.765 0-13.831-2.671-18.198-8.009l-116.451-139.732c-5.822-7.275-6.788-15.779-2.914-25.481 3.887-8.751 10.918-13.102 21.112-13.102h512.357c6.806 0 12.371 2.172 16.74 6.531 4.362 4.372 6.541 9.944 6.541 16.75v628.815h139.739c19.411 0 33.472 8.975 42.221 26.934 8.728 17.461 6.538 33.959-6.572 49.496z" />
<glyph unicode="&#xe93f;" d="M1024 836.414v-582.621c0-48.057-40.218-88.276-88.276-88.276h-512l-176.552-194.207v194.207h-158.897c-48.057 0-88.276 40.218-88.276 88.276v582.621c0 48.057 40.218 88.276 88.276 88.276h847.448c48.057 0 88.276-40.218 88.276-88.276z" />
<glyph unicode="&#xe940;" d="M158.897 377.379l176.552 353.103 317.793-229.517 211.862 247.172-211.862-406.069-317.793 229.517z" />
<glyph unicode="&#xe941;" glyph-name="arrows-1" d="M1008.311 432.327h-992.623c-8.66 0-15.689 7.029-15.689 15.689s7.029 15.689 15.689 15.689h992.623c8.66 0 15.689-7.029 15.689-15.689s-7.029-15.689-15.689-15.689zM614.933 38.98c-4.016 0-8.033 1.537-11.108 4.581-6.119 6.119-6.119 16.065 0 22.184l382.302 382.302-382.302 382.176c-6.119 6.119-6.119 16.065 0 22.184s16.065 6.119 22.184 0l393.378-393.252c2.949-2.949 4.581-6.934 4.581-11.108s-1.663-8.158-4.581-11.108l-393.378-393.347c-3.044-3.075-7.060-4.612-11.076-4.612z" />
<glyph unicode="&#xe942;" d="M511.998 960c282.772 0 512.002-229.226 512.002-512.002 0-282.768-229.23-511.998-512.002-511.998s-511.998 229.23-511.998 511.998c0 282.776 229.23 512.002 511.998 512.002z" />
<glyph unicode="&#xe943;" d="M900.718 470.88h-777.432l388.716 229.446 388.716-229.446z" />
<glyph unicode="&#xe944;" d="M123.282 470.88h777.432v-458.9h-777.432v458.9z" />
<glyph unicode="&#xe945;" d="M203.156 804.73h488.86l128.826-128.826v-663.93h-617.686v792.756z" />
<glyph unicode="&#xe946;" d="M296.292 634.718h431.402v-9.728h-431.402v9.728zM296.292 529.922v0h431.402v-9.736h-431.402v9.736zM296.292 511.872v0h431.402v-9.732h-431.402v9.732zM296.292 493.824v0h431.402v-9.728h-431.402v9.728zM296.292 475.774v0h431.424v-9.728h-431.424v9.728zM296.292 616.67v0h431.402v-9.732h-431.402v9.732zM296.292 598.62v0h431.402v-9.732h-431.402v9.732zM296.292 580.572v0h431.424v-9.728h-431.424v9.728zM296.288 562.522v0h330.45v-9.728h-330.45v9.728zM296.288 457.722v0h330.45v-9.732h-330.45v9.732z" />
<glyph unicode="&#xe947;" d="M692.020 804.73v-128.826h128.826l-128.826 128.826z" />
<glyph unicode="&#xe948;" d="M436.428 107.56h146.376v-14.3h-146.376v14.3z" />
<glyph unicode="&#xe949;" d="M123.282 470.88l388.716-229.446-388.716-229.454v458.9z" />
<glyph unicode="&#xe94a;" d="M900.718 470.88l-388.716-229.446 388.716-229.454v458.9z" />
<glyph unicode="&#xe94b;" d="M511.998 241.434l-388.716-229.454h777.432l-388.716 229.454z" />
<glyph unicode="&#xe94c;" d="M820.84 547.088v128.82h-128.82l128.82-128.82z" />
<glyph unicode="&#xe94d;" d="M207.684 926.79c67.518 0 122.254-54.734 122.254-122.254s-54.738-122.254-122.254-122.254c-67.522 0-122.254 54.738-122.254 122.254 0 67.522 54.736 122.254 122.254 122.254z" />
<glyph unicode="&#xe94e;" d="M216.962 772.296c-3.81-4.414-8.078-7.96-12.824-10.636-4.718-2.672-9.464-3.996-14.212-3.996-5.23 0-10.306 1.53-15.262 4.564-4.926 3.064-8.92 7.752-12.016 14.094-3.096 6.336-4.626 13.308-4.626 20.88 0 9.34 2.404 18.684 7.18 28.058 4.776 9.34 10.72 16.368 17.816 21.088 7.090 4.688 14 7.030 20.668 7.030 5.106 0 9.974-1.318 14.626-3.996 4.63-2.676 8.626-6.76 11.96-12.198l3.096 13.67h15.68l-12.678-59.12c-1.778-8.232-2.646-12.766-2.646-13.634 0-1.596 0.6-2.976 1.804-4.118s2.672-1.71 4.352-1.71c3.122 0 7.21 1.772 12.258 5.348 6.698 4.688 12.016 10.966 15.924 18.864 3.902 7.872 5.852 15.98 5.852 24.364 0 9.794-2.522 18.926-7.536 27.398-5.018 8.498-12.528 15.288-22.502 20.4-9.94 5.076-20.968 7.628-33.016 7.628-13.758 0-26.344-3.214-37.704-9.614-11.386-6.43-20.218-15.624-26.462-27.61-6.284-11.99-9.406-24.84-9.406-38.572 0-14.362 3.122-26.71 9.376-37.072 6.276-10.394 15.32-18.054 27.154-23.010 11.836-4.952 24.932-7.418 39.326-7.418 15.412 0 28.298 2.58 38.69 7.778 10.394 5.164 18.172 11.478 23.344 18.896h15.858c-3.002-6.16-8.14-12.466-15.408-18.864-7.272-6.398-15.924-11.478-25.956-15.2-10.036-3.726-22.142-5.588-36.262-5.588-13.040 0-25.056 1.684-36.050 5.018-11.024 3.334-20.394 8.352-28.148 15.046-7.752 6.73-13.582 14.456-17.516 23.164-4.926 11.082-7.39 23.040-7.39 35.868 0 14.27 2.946 27.904 8.806 40.852 7.174 15.862 17.362 28.028 30.55 36.472 13.19 8.44 29.17 12.648 47.978 12.648 14.57 0 27.666-2.972 39.264-8.92s20.76-14.808 27.428-26.586c5.71-10.124 8.564-21.154 8.564-33.046 0-17.004-5.98-32.086-17.934-45.27-10.698-11.84-22.352-17.758-35.026-17.758-4.062 0-7.302 0.634-9.794 1.866-2.496 1.23-4.322 3.004-5.498 5.318-0.778 1.468-1.316 4.022-1.682 7.624zM174.246 796.092v0c0-8.052 1.922-14.296 5.742-18.746 3.81-4.476 8.172-6.698 13.124-6.698 3.276 0 6.73 0.996 10.394 2.946 3.634 1.984 7.122 4.894 10.428 8.77 3.33 3.876 6.036 8.802 8.14 14.75 2.13 5.948 3.184 11.924 3.184 17.93 0 7.964-1.984 14.182-5.948 18.57-3.964 4.414-8.806 6.61-14.482 6.61-3.752 0-7.302-0.962-10.636-2.854-3.308-1.922-6.518-4.988-9.64-9.22-3.096-4.206-5.618-9.34-7.484-15.412-1.892-6.036-2.822-11.594-2.822-16.642v-0.004z" />
<glyph unicode="&#xe94f;" d="M946.636 841.762l40.702-36.702-3.414-3.074-37.288-33.624-5.534 6.148 29.276 26.406h-136.9v8.29h136.9l-29.276 26.406 5.534 6.15z" />
<glyph unicode="&#xe950;" d="M811.29 818.404l-40.698-36.702 40.698-36.706 5.534 6.152-29.276 26.406h136.9v8.286h-136.9l29.276 26.41-5.534 6.154z" />
<glyph unicode="&#xe951;" glyph-name="arrows" d="M1008.311 432.327h-992.623c-8.66 0-15.689 7.029-15.689 15.689s7.029 15.689 15.689 15.689h992.623c8.66 0 15.689-7.029 15.689-15.689s-7.029-15.689-15.689-15.689zM409.067 38.98c-4.016 0-8.033 1.537-11.108 4.581l-393.378 393.409c-2.918 2.949-4.581 6.934-4.581 11.108s1.663 8.158 4.581 11.108l393.409 393.221c6.119 6.119 16.065 6.119 22.184 0s6.119-16.065 0-22.184l-382.302-382.145 382.302-382.302c6.119-6.119 6.119-16.065 0-22.184-3.075-3.075-7.091-4.612-11.108-4.612z" />
<glyph unicode="&#xe952;" d="M0 861.193v-700.632h1006.035v700.632z" />
<glyph unicode="&#xe953;" d="M556.284 464.043c-29.409-26.265-77.105-26.265-106.532 0l-37.493 33.109c-117.293-104.682-412.259-336.591-412.259-336.591h1006.035c0 0-294.966 231.909-412.259 336.591l-37.493-33.109z" />
<glyph unicode="&#xe954;" d="M0 861.193l449.752-397.15c29.409-26.265 77.105-26.265 106.532 0l449.752 397.15h-1006.035z" />
<glyph unicode="&#xe955;" d="M808.421 336.618c17.408 39.217 55.853 75.453 102.113 75.453 62.284 0 107.143-50.679 112.784-111.077 0 0 3.054-15.001-3.647-41.984-9.126-36.756-30.558-69.416-59.482-94.334l-151.768-129.868-151.75 129.868c-28.924 24.917-50.356 57.578-59.482 94.334-6.701 26.983-3.647 41.984-3.647 41.984 5.641 60.398 50.499 111.077 112.784 111.077 46.242 0 84.687-36.235 102.095-75.453z" />
<glyph unicode="&#xe956;" d="M1023.468-21.38c0-12.786-4.263-23.443-12.786-31.966-8.525-6.394-17.049-10.655-29.836-10.655h-937.691c-10.655 0-21.311 4.263-29.836 10.655-8.525 8.525-12.786 19.18-12.786 31.966v624.419h1022.935v-624.419z" />
<glyph unicode="&#xe957;" d="M1010.682-53.345c-8.525-6.394-17.049-10.655-29.836-10.655h-937.691c-10.655 0-21.311 4.263-29.836 10.655l498.681 428.353 498.683-428.353z" />
<glyph unicode="&#xe958;" d="M1023.468 603.039l-144.916-104.425-338.848-242.948c-17.049-12.786-40.491-12.786-57.54 0l-481.632 347.373 144.916 104.425 338.848 242.946c17.049 12.786 40.491 12.786 57.54 0l23.443-17.049 151.31-108.687 74.588-53.277 87.376-63.934 144.916-104.425z" />
<glyph unicode="&#xe959;" d="M878.552 801.232v-302.617l-338.848-242.948c-17.049-12.786-40.491-12.786-57.54 0l-336.716 242.948v392.125c0 23.443 19.18 42.622 42.622 42.622h556.22l134.261-132.13z" />
<glyph unicode="&#xe95a;" d="M746.422 835.329c0-19.18 14.917-34.097 34.097-34.097h98.031l-132.13 132.13 0.002-98.033z" />
<glyph unicode="&#xe95b;" d="M637.737 505.006h34.097c-10.655-23.443-27.705-40.491-51.148-53.277-25.574-14.917-57.54-21.311-95.899-21.311-36.228 0-68.196 6.394-93.77 19.18s-46.885 29.836-59.671 55.408c-12.786 23.443-19.18 51.148-19.18 78.851 0 31.966 6.394 59.671 21.311 87.376s34.097 46.885 59.671 59.671c25.574 12.786 55.408 19.18 87.376 19.18 27.705 0 53.277-6.394 74.588-17.049s38.36-25.574 49.016-46.885c10.655-19.18 17.049-42.622 17.049-66.065 0-27.705-8.525-53.277-25.574-76.719-21.311-29.836-49.016-42.622-83.113-42.622-8.525 0-17.049 2.131-21.311 4.263-4.263 4.263-8.525 8.525-8.525 14.917-12.786-12.786-27.705-19.18-44.754-19.18-19.18 0-34.097 6.394-44.754 19.18-12.786 12.786-19.18 29.836-19.18 51.148 0 25.574 6.394 49.016 21.311 72.459 17.049 25.574 40.491 38.36 68.196 38.36 19.18 0 34.097-8.525 44.754-23.443l4.263 19.18h44.754l-25.574-119.342c-2.131-8.525-2.131-12.786-2.131-14.917s0-4.263 2.131-6.394 2.131-2.131 4.263-2.131c4.263 0 12.786 4.263 21.311 10.655 10.655 8.525 21.311 19.18 27.705 34.097s10.655 29.836 10.655 44.754c0 27.705-10.655 51.148-29.836 68.196-19.18 19.18-46.885 27.705-83.113 27.705-29.836 0-55.408-6.394-76.719-19.18s-36.228-29.836-46.885-51.148-14.917-44.754-14.917-70.328c0-23.443 6.394-44.754 17.049-63.934 12.786-19.18 27.705-34.097 49.016-42.622s44.754-12.786 72.459-12.786c25.574 0 49.016 4.263 68.196 10.655 19.18 8.527 34.097 19.182 46.885 34.099zM456.591 573.203c0-14.917 2.131-23.443 8.525-31.966 6.394-6.394 12.786-10.655 21.311-10.655 6.394 0 12.786 2.131 17.049 4.263s8.525 6.394 12.786 10.655c6.394 6.394 10.657 17.049 14.917 29.836 4.263 12.786 6.394 25.574 6.394 36.228 0 12.786-2.131 21.311-8.525 29.836-6.394 6.394-12.786 10.655-21.311 10.655s-19.18-4.263-25.574-10.655c-8.525-6.394-14.917-17.049-19.18-31.966-4.261-12.79-6.392-25.576-6.392-36.233z" />
<glyph unicode="&#xe95c;" glyph-name="left-arrow-1" d="M703.305-2.878c6.35-6.35 14.288-9.526 23.020-9.526s16.67 3.175 23.020 9.526c12.701 12.701 12.701 33.34 0 46.040l-404.837 404.837 404.837 404.837c12.701 12.701 12.701 33.34 0 46.040s-33.34 12.701-46.040 0l-428.651-427.857c-12.701-12.701-12.701-33.34 0-46.040l428.651-427.857z" />
<glyph unicode="&#xe95d;" glyph-name="left-arrow" d="M334.018 797.137c14.436 14.436 37.164 14.436 51.6 0 13.949-13.949 13.949-37.164 0-51.080l-261.641-261.641h863.38c20.126 0 36.643-15.997 36.643-36.123s-16.517-36.643-36.643-36.643h-863.38l261.641-261.153c13.949-14.436 13.949-37.684 0-51.6-14.436-14.436-37.164-14.436-51.6 0l-323.581 323.581c-13.949 13.949-13.949 37.164 0 51.080l323.581 323.581z" />
<glyph unicode="&#xe95e;" d="M195.046 96.632c41.218-15.274 669.018 607.356 669.018 607.356s27.324 73.726-31.778 95.632c-45.972 17.036-326.092 120.856-326.092 120.856-53.644 19.878-86.648-6.458-97.062-34.566-10.418-28.106-253.64-684.352-266.656-719.48-13.020-35.13 11.354-54.524 52.57-69.798z" />
<glyph unicode="&#xe95f;" d="M605.602 6.62c-11.184-30.176-44.714-45.574-74.894-34.39l-338.276 125.372c-30.18 11.184-45.578 44.718-34.39 74.894l258.458 697.368c11.184 30.18 44.718 45.578 74.898 34.39l338.272-125.372c30.18-11.184 45.578-44.714 34.394-74.894l-258.462-697.368z" />
<glyph unicode="&#xe960;" d="M440.66 847.3l390.321-144.648-231.438-624.518-390.321 144.648 231.438 624.518z" />
<glyph unicode="&#xe961;" d="M710.504 781.616c-1.598-4.316-6.684-6.406-11.356-4.672l-110.024 40.778c-4.672 1.73-7.164 6.628-5.566 10.942v0c1.598 4.312 6.684 6.402 11.356 4.672l110.020-40.778c4.672-1.734 7.164-6.628 5.57-10.942v0z" />
<glyph unicode="&#xe962;" d="M704.918 776.652c-1.808-0.488-3.824-0.43-5.77 0.292l-110.024 40.778c-4.672 1.73-7.164 6.628-5.566 10.942v0c1.598 4.312 6.684 6.402 11.356 4.672 0 0-4.54-2.39-4.804-7.098-0.266-4.714 12.624-9.86 18.476-12.032 5.86-2.172 96.332-37.554 96.332-37.554z" />
<glyph unicode="&#xe963;" d="M440.73 847.37l-202.512-546.414 578.244 362.47 14.562 39.292z" />
<glyph unicode="&#xe964;" d="M418.070 93.364c0-19.38-15.71-35.090-35.090-35.090s-35.090 15.71-35.090 35.090c0 19.38 15.71 35.090 35.090 35.090s35.090-15.71 35.090-35.090z" />
<glyph unicode="&#xe965;" d="M412.954 93.364c0-16.554-13.42-29.974-29.974-29.974s-29.974 13.42-29.974 29.974c0 16.554 13.42 29.974 29.974 29.974s29.974-13.42 29.974-29.974z" />
<glyph unicode="&#xe966;" d="M404.66 85.332c4.438 11.972-1.668 25.278-13.644 29.714-11.972 4.438-25.278-1.668-29.714-13.644-4.442-11.98 1.672-25.282 13.644-29.718s25.276 1.668 29.714 13.648z" />
<glyph unicode="&#xe967;" d="M732.622 821.14l65.992-24.46c0 0 4.824 2.524 3.406 9.196l-65.992 24.46c0 0-5.856-3.064-3.406-9.196z" />
<glyph unicode="&#xe968;" d="M802.020 805.874l-65.992 24.46c0 0-4.364-2.282-3.98-6.852l68.328-25.312c1.21 1.404 2.46 3.864 1.644 7.704z" />
<glyph unicode="&#xe969;" d="M521.646 904.534c0.941 2.539 8.573 2.051 17.046-1.089s14.58-7.744 13.639-10.282c-0.941-2.539-8.573-2.051-17.046 1.089s-14.58 7.744-13.639 10.282z" />
<glyph unicode="&#xe96a;" d="M970.314 320.14c-23.458-63.292-73.636-108.876-133.004-128.79l18.136-36.32c68.168 24.566 125.472 77.852 152.624 151.114 27.156 73.262 18.418 151.016-17.282 214.074l-37.422-15.722c32.044-53.798 40.404-121.070 16.948-184.356z" />
<glyph unicode="&#xe96b;" d="M889.81 349.972c-15.586-42.054-50.852-71.082-91.496-80.554l20.692-41.422c50.52 15.132 93.594 52.958 113.332 106.214 19.738 53.266 11.722 110.020-16.738 154.418l-42.684-17.93c24.652-33.672 32.484-78.668 16.894-120.726z" />
<glyph unicode="&#xe96c;" d="M53.686 647.976c-23.458-63.29-15.102-130.57 16.95-184.364l-37.426-15.722c-35.696 63.054-44.434 140.816-17.282 214.078s84.454 126.542 152.624 151.11l18.136-36.32c-59.364-19.918-109.544-65.492-133.002-128.782z" />
<glyph unicode="&#xe96d;" d="M134.19 618.14c-15.59-42.062-7.758-87.058 16.894-120.726l-42.684-17.938c-28.46 44.406-36.476 101.16-16.738 154.426 19.742 53.258 62.812 91.082 113.336 106.208l20.688-41.418c-40.644-9.47-75.91-38.498-91.496-80.552z" />
<glyph unicode="&#xe96e;" glyph-name="down-arrow" d="M962.878 685.346c-12.701 12.701-33.34 12.701-46.040 0l-404.837-405.631-405.631 405.631c-12.701 12.701-33.34 12.701-46.040 0s-12.701-33.34 0-46.040l427.857-427.857c6.35-6.35 14.288-9.526 23.020-9.526 7.938 0 16.67 3.175 23.020 9.526l427.857 427.857c13.495 12.701 13.495 33.34 0.794 46.040z" />
<glyph unicode="&#xe96f;" d="M996.19 174.54c-36.030 68.092-168.93 145.979-168.93 145.979-30.069 17.142-66.346 19.059-83.506-11.504 0 0-43.167-51.786-54.159-59.227-50.172-33.999-96.642-32.689-143.549 14.237l-218.077 218.039c-46.926 46.926-48.236 93.377-14.237 143.549 7.441 10.991 59.227 54.159 59.227 54.159 30.544 17.161 28.645 53.437 11.504 83.506 0 0-77.887 132.9-145.979 168.93-28.968 15.338-64.542 9.985-87.72-13.193l-48.16-48.141c-152.718-152.718-77.527-325.141 75.192-477.878l279.164-279.164c152.718-152.718 325.16-227.929 477.878-75.192l48.16 48.16c23.159 23.178 28.512 58.771 13.193 87.739z" />
<glyph unicode="&#xe970;" d="M752.809-64c-20.008 0-40.396 2.411-61.201 7.214-78.438 18.129-161.906 71.015-248.070 157.198l-279.145 279.164c-189.716 189.697-215.723 364.208-75.211 504.72l48.16 48.16c29.234 29.272 73.426 35.897 110.025 16.553 72.059-38.118 150.194-170.486 153.478-176.105 13.934-24.431 18.3-49.508 12.396-70.826-4.442-16.041-14.579-29.082-29.348-37.89-23.159-19.363-50.229-43.376-54.462-49.261-30.43-44.876-26.842-80.621 11.978-119.441l218.039-218.039c38.782-38.782 74.508-42.389 119.498-11.94 5.809 4.214 29.822 31.265 49.204 54.424 8.789 14.769 21.849 24.906 37.871 29.348 21.318 5.942 46.394 1.557 70.636-12.263 5.828-3.417 138.196-81.57 176.314-153.61v0c19.363-36.561 12.7-80.773-16.553-110.025l-48.16-48.16c-59.36-59.341-124.908-89.22-195.449-89.22zM203.479 921.996c-14.389 0-28.55-5.619-39.295-16.363l-48.16-48.179c-124.68-124.699-99.376-276.449 75.211-451.036l279.145-279.164c174.587-174.606 326.337-199.872 451.036-75.192l48.16 48.16c17.388 17.388 21.337 43.68 9.852 65.415v0c-27.487 51.937-126.104 117.581-161.754 138.5-14.731 8.409-30.392 11.561-41.478 8.542-6.834-1.917-12.035-6.15-15.87-12.984l-1.974-2.866c-13.497-16.192-46.167-54.709-58.088-62.796-59.796-40.491-116.176-34.929-167.639 16.534l-218.058 218.077c-51.482 51.463-57.044 107.88-16.534 167.639 8.068 11.902 46.603 44.591 62.796 58.107l2.847 1.974c6.834 3.835 11.086 9.036 12.984 15.87 3.094 11.162-0.152 26.747-8.675 41.687-0.626 1.082-75.837 128.477-138.367 161.564-8.296 4.366-17.275 6.511-26.14 6.511z" />
<glyph unicode="&#xe971;" d="M759.32 144.851c-0.645 0-1.31 0.038-1.974 0.095-130.888 13.592-216.577 96.756-220.184 100.287-7.46 7.346-7.536 19.344-0.209 26.804 7.327 7.498 19.344 7.593 26.842 0.247 0.778-0.759 80.241-77.394 197.461-89.562 10.422-1.101 17.996-10.422 16.933-20.862-1.006-9.738-9.264-17.009-18.869-17.009z" />
<glyph unicode="&#xe972;" d="M341.656 448.579c-4.252 0-8.504 1.424-12.054 4.347-4.347 3.569-107.026 89.505-120.713 221.494-1.082 10.441 6.511 19.761 16.933 20.862 10.574 0.93 19.761-6.511 20.862-16.933 12.054-116.176 106.153-195.354 107.102-196.132 8.068-6.701 9.207-18.641 2.544-26.728-3.778-4.556-9.207-6.91-14.674-6.91z" />
<glyph unicode="&#xe973;" d="M786.997 673.888c5.087 0 10.137 2.012 13.877 6.018l12.946 13.858c7.157 7.669 6.72 19.685-0.93 26.842-7.669 7.138-19.685 6.72-26.842-0.93l-12.946-13.858c-7.157-7.669-6.72-19.685 0.93-26.842 3.683-3.398 8.334-5.087 12.965-5.087z" />
<glyph unicode="&#xe974;" d="M890.606 784.92c5.068 0 10.137 2.012 13.858 6.018l12.965 13.858c7.157 7.65 6.739 19.666-0.911 26.823-7.612 7.176-19.685 6.796-26.823-0.911l-12.965-13.858c-7.157-7.65-6.739-19.666 0.911-26.823 3.664-3.417 8.315-5.106 12.965-5.106z" />
<glyph unicode="&#xe975;" d="M734.243 664.188l-12.946-13.877c-7.157-7.669-6.72-19.685 0.949-26.823 3.645-3.417 8.315-5.106 12.946-5.106 5.087 0 10.137 2.012 13.877 6.037l12.946 13.877c7.157 7.669 6.72 19.685-0.949 26.823-7.631 7.138-19.647 6.739-26.823-0.93z" />
<glyph unicode="&#xe976;" d="M838.802 729.395c5.087 0 10.137 2.012 13.877 6.018l12.965 13.877c7.138 7.669 6.72 19.685-0.93 26.842-7.669 7.138-19.666 6.72-26.842-0.93l-12.965-13.877c-7.138-7.669-6.72-19.685 0.93-26.842 3.683-3.398 8.334-5.087 12.965-5.087z" />
<glyph unicode="&#xe977;" d="M709.3 609.631c-7.669 7.138-19.666 6.72-26.842-0.93l-12.965-13.877c-7.138-7.669-6.72-19.685 0.93-26.842 3.664-3.417 8.315-5.106 12.965-5.106 5.087 0 10.137 2.012 13.877 6.018l12.965 13.877c7.119 7.688 6.72 19.704-0.93 26.861z" />
<glyph unicode="&#xe978;" d="M942.43 840.426c5.087 0 10.137 2.012 13.877 6.018l6.72 7.195c7.157 7.669 6.72 19.685-0.93 26.842-7.688 7.138-19.666 6.72-26.842-0.93l-6.72-7.195c-7.157-7.669-6.72-19.685 0.93-26.842 3.683-3.398 8.334-5.087 12.965-5.087z" />
<glyph unicode="&#xe979;" d="M493.539 809.655c-10.498 0-18.983-8.485-18.983-18.983v-18.983c0-10.498 8.485-18.983 18.983-18.983s18.983 8.485 18.983 18.983v18.983c0 10.498-8.485 18.983-18.983 18.983z" />
<glyph unicode="&#xe97a;" d="M493.539 657.791c-10.498 0-18.983-8.485-18.983-18.983v-18.983c0-10.498 8.485-18.983 18.983-18.983s18.983 8.485 18.983 18.983v18.983c0 10.479-8.485 18.983-18.983 18.983z" />
<glyph unicode="&#xe97b;" d="M493.539 733.723c-10.498 0-18.983-8.485-18.983-18.983v-18.983c0-10.498 8.485-18.983 18.983-18.983s18.983 8.485 18.983 18.983v18.983c0 10.498-8.485 18.983-18.983 18.983z" />
<glyph unicode="&#xe97c;" d="M493.539 885.587c-10.498 0-18.983-8.485-18.983-18.983v-18.983c0-10.498 8.485-18.983 18.983-18.983s18.983 8.485 18.983 18.983v18.983c0 10.498-8.485 18.983-18.983 18.983z" />
<glyph unicode="&#xe97d;" d="M811.789 429.995h-18.983c-10.498 0-18.983-8.485-18.983-18.983s8.485-18.983 18.983-18.983h18.983c10.498 0 18.983 8.485 18.983 18.983s-8.485 18.983-18.983 18.983z" />
<glyph unicode="&#xe97e;" d="M963.653 429.995h-18.983c-10.498 0-18.983-8.485-18.983-18.983s8.485-18.983 18.983-18.983h18.983c10.498 0 18.983 8.485 18.983 18.983s-8.485 18.983-18.983 18.983z" />
<glyph unicode="&#xe97f;" d="M887.721 429.995h-18.983c-10.498 0-18.983-8.485-18.983-18.983s8.485-18.983 18.983-18.983h18.983c10.498 0 18.983 8.485 18.983 18.983s-8.485 18.983-18.983 18.983z" />
<glyph unicode="&#xe980;" d="M735.857 429.995h-18.983c-10.498 0-18.983-8.485-18.983-18.983s8.485-18.983 18.983-18.983h18.983c10.498 0 18.983 8.485 18.983 18.983s-8.485 18.983-18.983 18.983z" />
<glyph unicode="&#xe981;" d="M950.574 599.304c9.378 4.689 13.174 16.098 8.485 25.475-4.708 9.378-16.098 13.136-25.475 8.485l-16.99-8.485c-9.378-4.689-13.174-16.098-8.485-25.475 3.341-6.663 10.023-10.498 17.009-10.498 2.847 0 5.752 0.645 8.466 1.993l16.99 8.504z" />
<glyph unicode="&#xe982;" d="M729.839 531.402l-16.99-8.485c-9.378-4.689-13.174-16.098-8.485-25.475 3.341-6.663 10.023-10.498 17.009-10.498 2.847 0 5.752 0.645 8.466 1.993l16.99 8.485c9.378 4.689 13.174 16.098 8.485 25.475-4.727 9.378-16.117 13.174-25.475 8.504z" />
<glyph unicode="&#xe983;" d="M789.275 520.904c2.847 0 5.752 0.645 8.466 1.993l16.971 8.485c9.378 4.689 13.174 16.117 8.485 25.475-4.708 9.378-16.098 13.117-25.475 8.485l-16.971-8.485c-9.378-4.689-13.174-16.117-8.485-25.475 3.36-6.644 10.042-10.479 17.009-10.479z" />
<glyph unicode="&#xe984;" d="M865.663 556.858l16.99 8.485c9.378 4.689 13.174 16.098 8.485 25.475-4.708 9.378-16.117 13.136-25.475 8.485l-16.99-8.485c-9.378-4.689-13.174-16.098-8.485-25.475 3.341-6.663 10.023-10.498 17.009-10.498 2.847 0.019 5.733 0.664 8.466 2.012z" />
<glyph unicode="&#xe985;" d="M603.071 654.848c-9.662 4.043-20.767-0.532-24.83-10.213l-7.308-17.521c-4.043-9.681 0.532-20.805 10.213-24.83 2.392-1.006 4.86-1.462 7.308-1.462 7.441 0 14.484 4.385 17.521 11.675l7.308 17.521c4.043 9.7-0.532 20.824-10.213 24.83z" />
<glyph unicode="&#xe986;" d="M668.771 812.578c2.392-1.006 4.86-1.462 7.308-1.462 7.441 0 14.484 4.385 17.521 11.675l7.308 17.521c4.043 9.681-0.532 20.805-10.213 24.83-9.643 4.024-20.786-0.532-24.83-10.213l-7.308-17.521c-4.043-9.681 0.532-20.805 10.213-24.83z" />
<glyph unicode="&#xe987;" d="M632.267 724.952c-9.624 4.005-20.786-0.532-24.83-10.213l-7.308-17.521c-4.043-9.681 0.532-20.805 10.213-24.83 2.392-1.006 4.86-1.462 7.308-1.462 7.441 0 14.484 4.385 17.521 11.675l7.308 17.521c4.043 9.681-0.532 20.805-10.213 24.83z" />
<glyph unicode="&#xe988;" d="M661.482 795.038c-9.643 4.024-20.786-0.532-24.83-10.213l-7.308-17.521c-4.043-9.681 0.532-20.805 10.213-24.83 2.392-1.006 4.86-1.462 7.308-1.462 7.441 0 14.484 4.385 17.521 11.675l7.308 17.521c4.043 9.681-0.532 20.805-10.213 24.83z" />
<glyph unicode="&#xe989;" glyph-name="right-arrow" d="M689.55 797.181c-13.95 14.438-37.168 14.438-51.606 0-13.95-13.95-13.95-37.168 0-51.086l261.674-261.674h-863.49c-20.129-0.033-36.128-16.032-36.128-36.16s15.999-36.648 36.128-36.648h863.49l-261.674-261.187c-13.95-14.438-13.95-37.689 0-51.606 14.438-14.438 37.689-14.438 51.606 0l323.622 323.622c14.438 13.95 14.438 37.168 0 51.086l-323.622 323.654z" />
<glyph unicode="&#xe98a;" d="M895.618 158.782c-32.394 61.221-151.884 131.249-151.884 131.249-27.035 15.412-59.651 17.136-75.080-10.343 0 0-38.812-46.56-48.694-53.251-45.109-30.568-86.891-29.39-129.065 12.801l-196.038 196.038c-42.191 42.191-43.369 83.955-12.801 129.065 6.69 9.882 53.251 48.694 53.251 48.694 27.462 15.429 25.755 48.045 10.343 75.080 0 0-70.028 119.49-131.249 151.884-26.045 13.791-58.030 8.978-78.869-11.862l-43.3-43.3c-137.308-137.308-69.704-292.35 67.604-429.658l250.995-250.995c137.308-137.308 292.35-204.93 429.658-67.604l43.3 43.3c20.805 20.857 25.618 52.858 11.828 78.903z" />
<glyph unicode="&#xe98b;" d="M676.795-55.688c-17.989 0-36.32 2.168-55.026 6.486-70.523 16.299-145.569 63.85-223.038 141.336l-250.978 251.012c-170.556 170.539-193.938 327.44-67.622 453.774l43.3 43.3c26.301 26.318 66 32.275 98.923 14.883 64.788-34.272 135.038-153.283 137.991-158.335 12.528-21.966 16.453-44.512 11.145-63.679-3.994-14.422-13.108-26.147-26.386-34.067-20.822-17.409-45.161-38.999-48.967-44.29-27.359-40.348-24.133-72.486 10.77-107.389l196.038-196.038c34.869-34.869 66.973-38.112 107.44-10.735 5.206 3.772 26.796 28.093 44.239 48.933 7.902 13.279 19.645 22.393 34.050 26.386 19.184 5.342 41.73 1.4 63.508-11.026 5.24-3.072 124.252-73.339 158.523-138.11v0c17.409-32.872 11.418-72.622-14.883-98.923l-43.3-43.3c-53.37-53.353-112.287-80.217-175.727-80.217zM182.913 830.816c-12.937 0-25.67-5.052-35.33-14.712l-43.3-43.3c-112.099-112.117-89.348-248.554 67.622-405.524l250.978-250.995c156.97-156.987 293.408-179.704 405.524-67.604l43.3 43.3c15.634 15.634 19.184 39.272 8.858 58.815v0c-24.714 46.697-113.38 105.716-145.432 124.525-13.244 7.561-27.308 10.394-37.293 7.68-6.144-1.724-10.821-5.53-14.268-11.674l-1.775-2.577c-12.135-14.559-41.525-49.172-52.227-56.442-53.763-36.405-104.453-31.421-150.723 14.849l-196.072 196.055c-46.287 46.27-51.288 96.995-14.866 150.723 7.254 10.701 41.901 40.092 56.459 52.244l2.56 1.775c6.144 3.448 9.967 8.124 11.674 14.268 2.782 10.036-0.137 24.048-7.8 37.48-0.563 0.973-68.185 115.513-124.405 145.262-7.459 3.926-15.531 5.854-23.485 5.854z" />
<glyph unicode="&#xe98c;" d="M682.667 132.089c-0.58 0-1.178 0.034-1.775 0.085-117.681 12.22-194.723 86.993-197.966 90.168-6.708 6.605-6.776 17.392-0.188 24.099 6.588 6.742 17.392 6.827 24.133 0.222 0.7-0.683 72.144-69.584 177.536-80.525 9.37-0.99 16.18-9.37 15.224-18.757-0.922-8.756-8.329-15.292-16.965-15.292z" />
<glyph unicode="&#xe98d;" d="M307.147 405.169c-3.823 0-7.646 1.28-10.838 3.908-3.908 3.209-96.227 80.473-108.532 199.144-0.973 9.387 5.854 17.767 15.224 18.757 9.421 0.836 17.767-5.854 18.757-15.224 10.838-104.453 95.442-175.642 96.295-176.342 7.254-6.025 8.278-16.76 2.287-24.031-3.414-4.096-8.278-6.213-13.193-6.213z" />
<glyph unicode="&#xe98e;" d="M467.001 951.688c-9.438 0-17.068-7.629-17.068-17.068s7.629-17.068 17.068-17.068c288.305 0 522.863-234.559 522.863-522.863 0-9.438 7.629-17.068 17.068-17.068s17.068 7.629 17.068 17.068c0 307.13-249.868 556.999-556.999 556.999z" />
<glyph unicode="&#xe98f;" d="M467.001 831.703c-9.438 0-17.068-7.629-17.068-17.068s7.629-17.068 17.068-17.068c222.151 0 402.862-180.728 402.862-402.862 0-9.438 7.629-17.068 17.068-17.068s17.068 7.629 17.068 17.068c0.017 240.942-196.038 436.997-436.997 436.997z" />
<glyph unicode="&#xe990;" d="M467.001 711.719c-9.438 0-17.068-7.629-17.068-17.068s7.629-17.068 17.068-17.068c155.997 0 282.894-126.914 282.894-282.894 0-9.438 7.629-17.068 17.068-17.068s17.068 7.629 17.068 17.068c0 174.806-142.224 317.029-317.029 317.029z" />
<glyph unicode="&#xe991;" glyph-name="navigation" d="M1018.388 941.874c-5.85 6.048-14.873 7.734-22.508 4.224l-984.318-451.753c-7.913-3.649-12.533-11.998-11.383-20.644s7.794-15.508 16.381-16.936l441.5-73.99 50.47-417.207c1.071-8.686 7.714-15.686 16.341-17.154 1.13-0.198 2.241-0.297 3.351-0.297 7.437 0 14.397 4.184 17.769 11.026l475.947 960.124c3.728 7.516 2.3 16.579-3.55 22.607zM539.922 36.227l-44.263 366.023c-1.071 8.726-7.754 15.726-16.42 17.174l-392.498 65.8 874.771 401.461-421.59-850.458z" />
<glyph unicode="&#xe992;" d="M1017.16 448c0-280.881-227.699-508.58-508.58-508.58s-508.58 227.699-508.58 508.58c0 280.881 227.699 508.58 508.58 508.58s508.58-227.699 508.58-508.58z" />
<glyph unicode="&#xe993;" d="M508.58 886.431c241.751 0 438.431-196.68 438.431-438.431s-196.68-438.431-438.431-438.431-438.431 196.68-438.431 438.431 196.68 438.431 438.431 438.431zM508.58 956.58c-280.877 0-508.58-227.704-508.58-508.58s227.704-508.58 508.58-508.58 508.58 227.704 508.58 508.58-227.704 508.58-508.58 508.58v0z" />
<glyph unicode="&#xe994;" d="M508.58 853.496c-9.681 0-17.537-7.839-17.537-17.537v-17.537c0-9.698 7.857-17.537 17.537-17.537s17.537 7.839 17.537 17.537v17.537c0 9.681-7.857 17.537-17.537 17.537z" />
<glyph unicode="&#xe995;" d="M508.58 99.395c-9.681 0-17.537-7.839-17.537-17.537v-17.537c0-9.698 7.857-17.537 17.537-17.537s17.537 7.839 17.537 17.537v17.537c0 9.681-7.857 17.537-17.537 17.537z" />
<glyph unicode="&#xe996;" d="M894.4 467.677h-17.537c-9.681 0-17.537-7.839-17.537-17.537s7.857-17.537 17.537-17.537h17.537c9.681 0 17.537 7.839 17.537 17.537s-7.857 17.537-17.537 17.537z" />
<glyph unicode="&#xe997;" d="M140.298 467.677h-17.537c-9.681 0-17.537-7.839-17.537-17.537s7.857-17.537 17.537-17.537h17.537c9.681 0 17.537 7.839 17.537 17.537s-7.857 17.537-17.537 17.537z" />
<glyph unicode="&#xe998;" d="M768.991 735.348l-12.399-12.399c-6.857-6.857-6.857-17.941 0-24.798 3.42-3.42 7.909-5.138 12.399-5.138s8.979 1.719 12.399 5.138l12.399 12.399c6.857 6.857 6.857 17.941 0 24.798s-17.941 6.857-24.798 0z" />
<glyph unicode="&#xe999;" d="M235.771 202.11l-12.399-12.399c-6.857-6.857-6.857-17.941 0-24.798 3.42-3.42 7.909-5.138 12.399-5.138s8.979 1.719 12.399 5.138l12.399 12.399c6.857 6.857 6.857 17.941 0 24.798s-17.958 6.857-24.798 0z" />
<glyph unicode="&#xe99a;" d="M781.39 202.11c-6.857 6.857-17.941 6.857-24.798 0s-6.857-17.941 0-24.798l12.399-12.399c3.42-3.42 7.909-5.138 12.399-5.138s8.979 1.719 12.399 5.138c6.857 6.857 6.857 17.941 0 24.798l-12.399 12.399z" />
<glyph unicode="&#xe99b;" d="M248.17 735.348c-6.857 6.857-17.941 6.857-24.798 0s-6.857-17.941 0-24.798l12.399-12.399c3.42-3.42 7.909-5.138 12.399-5.138s8.979 1.719 12.399 5.138c6.857 6.857 6.857 17.941 0 24.798l-12.399 12.399z" />
<glyph unicode="&#xe99c;" d="M455.968 432.585h-140.298c-9.698 0-17.537 7.839-17.537 17.537s7.839 17.537 17.537 17.537h140.298c9.698 0 17.537-7.839 17.537-17.537s-7.839-17.537-17.537-17.537z" />
<glyph unicode="&#xe99d;" d="M508.58 485.197c-9.698 0-17.537 7.839-17.537 17.537v192.91c0 9.698 7.839 17.537 17.537 17.537s17.537-7.839 17.537-17.537v-192.91c0-9.681-7.839-17.537-17.537-17.537z" />
<glyph unicode="&#xe99e;" d="M508.58 379.973c-38.687 0-70.149 31.462-70.149 70.149s31.462 70.149 70.149 70.149 70.149-31.462 70.149-70.149-31.462-70.149-70.149-70.149zM508.58 485.197c-19.344 0-35.074-15.731-35.074-35.074s15.731-35.074 35.074-35.074 35.074 15.731 35.074 35.074-15.731 35.074-35.074 35.074z" />
<glyph unicode="&#xe99f;" d="M1024 132.33c0-106.541-86.369-192.91-192.91-192.91s-192.91 86.369-192.91 192.91c0 106.541 86.369 192.91 192.91 192.91s192.91-86.369 192.91-192.91z" />
<glyph unicode="&#xe9a0;" d="M936.314 149.867h-87.686v87.686c0 9.681-7.839 17.537-17.537 17.537s-17.537-7.857-17.537-17.537v-105.223c0-9.681 7.839-17.537 17.537-17.537h105.223c9.698 0 17.537 7.857 17.537 17.537s-7.857 17.537-17.537 17.537z" />
<glyph unicode="&#xe9a1;" d="M1024 77.241c0-78.005-229.23-141.241-512-141.241s-512 63.236-512 141.241c0 78.005 229.23 141.241 512 141.241s512-63.236 512-141.241z" />
<glyph unicode="&#xe9a2;" d="M735.797 866.004v0c-125.316 125.316-328.51 125.316-453.844 0v0c-112.922-112.922-125.617-325.544-29.802-453.314l256.724-370.759 256.724 370.759c95.832 127.77 83.121 340.392-29.802 453.314zM512 536.276c-58.509 0-105.931 47.422-105.931 105.931s47.422 105.931 105.931 105.931 105.931-47.422 105.931-105.931-47.422-105.931-105.931-105.931z" />
<glyph unicode="&#xe9a3;" glyph-name="search" d="M999.602-31.269l-287.271 298.755c73.273 73.485 118.667 174.791 118.667 286.517 0 223.878-182.118 405.996-405.996 405.996s-405.996-182.118-405.996-405.996 182.118-405.996 405.996-405.996c98.27 0 188.46 35.128 258.755 93.418l287.967-299.49c3.789-3.963 8.855-5.935 13.939-5.935 4.833 0 9.647 1.798 13.398 5.394 7.695 7.405 7.927 19.642 0.541 27.337zM425.001 186.674c-202.553 0-367.33 164.776-367.33 367.33s164.776 367.33 367.33 367.33 367.33-164.776 367.33-367.33-164.796-367.33-367.33-367.33z" />
<glyph unicode="&#xe9a4;" d="M974.793-7.111h-761.905c-81.914 0-148.317 66.404-148.317 148.317v28.444c0 81.914 66.404 148.317 148.317 148.317h761.905v-325.079z" />
<glyph unicode="&#xe9a5;" d="M97.079 285.46h81.27v-260.063h-81.27v260.063z" />
<glyph unicode="&#xe9a6;" d="M897.587 366.73h-865.524v227.556h865.524c24.686 0 44.698-20.013 44.698-44.698v-138.159c0-24.686-20.013-44.698-44.698-44.698z" />
<glyph unicode="&#xe9a7;" d="M145.841 886.857h828.952v-243.81h-828.952v243.81z" />
<glyph unicode="&#xe9a8;" d="M975.238-39.619h-747.683c-107.548 0-195.048 87.491-195.048 195.048s87.499 195.048 195.048 195.048h747.683c17.953 0 32.508-14.555 32.508-32.508s-14.555-32.508-32.508-32.508h-747.683c-71.698 0-130.032-58.333-130.032-130.032s58.333-130.032 130.032-130.032h747.683c17.953 0 32.508-14.555 32.508-32.508s-14.555-32.508-32.508-32.508z" />
<glyph unicode="&#xe9a9;" d="M877.714 350.476h-861.46c-8.984 0-16.254 7.27-16.254 16.254s7.27 16.254 16.254 16.254h861.46c26.888 0 48.762 21.874 48.762 48.762v97.524c0 26.888-21.874 48.762-48.762 48.762h-861.46c-8.984 0-16.254 7.27-16.254 16.254s7.27 16.254 16.254 16.254h861.46c44.81 0 81.27-36.46 81.27-81.27v-97.524c0-44.81-36.46-81.27-81.27-81.27z" />
<glyph unicode="&#xe9aa;" d="M974.793 805.587h-747.683c-8.976 0-16.254 7.278-16.254 16.254v0c0 8.976 7.278 16.254 16.254 16.254h747.683v-32.508z" />
<glyph unicode="&#xe9ab;" d="M974.793 740.571h-747.683c-8.976 0-16.254 7.278-16.254 16.254v0c0 8.976 7.278 16.254 16.254 16.254h747.683v-32.508z" />
<glyph unicode="&#xe9ac;" d="M974.793 675.556h-747.683c-8.976 0-16.254 7.278-16.254 16.254v0c0 8.976 7.278 16.254 16.254 16.254h747.683v-32.508z" />
<glyph unicode="&#xe9ad;" d="M32.063 545.524h845.206c8.976 0 16.254-7.278 16.254-16.254v0c0-8.976-7.278-16.254-16.254-16.254h-845.206c0 0 0 32.508 0 32.508z" />
<glyph unicode="&#xe9ae;" d="M32.063 480.508h845.206c8.976 0 16.254-7.278 16.254-16.254v0c0-8.976-7.278-16.254-16.254-16.254h-845.206c0 0 0 32.508 0 32.508z" />
<glyph unicode="&#xe9af;" d="M32.063 415.492h845.206c8.976 0 16.254-7.278 16.254-16.254v0c0-8.976-7.278-16.254-16.254-16.254h-845.206c0 0 0 32.508 0 32.508z" />
<glyph unicode="&#xe9b0;" d="M991.492 610.54h-780.19c-53.778 0-97.524 43.746-97.524 97.524v130.032c0 53.778 43.746 97.524 97.524 97.524h780.19c17.953 0 32.508-14.555 32.508-32.508s-14.555-32.508-32.508-32.508h-780.19c-17.928 0-32.508-14.58-32.508-32.508v-130.032c0-17.92 14.58-32.508 32.508-32.508h780.19c17.953 0 32.508-14.555 32.508-32.508s-14.555-32.508-32.508-32.508z" />
<glyph unicode="&#xe9b1;" d="M227.111 57.905c-8.984 0-16.254-7.27-16.254-16.254s7.27-16.254 16.254-16.254h747.683v32.508h-747.683z" />
<glyph unicode="&#xe9b2;" d="M227.111 122.921c-8.984 0-16.254-7.27-16.254-16.254s7.27-16.254 16.254-16.254h747.683v32.508h-747.683z" />
<glyph unicode="&#xe9b3;" d="M227.111 187.937c-8.984 0-16.254-7.27-16.254-16.254s7.27-16.254 16.254-16.254h747.683v32.508h-747.683z" />
<glyph unicode="&#xe9b4;" d="M227.111 252.952c-8.984 0-16.254-7.27-16.254-16.254s7.27-16.254 16.254-16.254h747.683v32.508h-747.683z" />
<glyph unicode="&#xe9b5;" glyph-name="magnifying-glass" d="M1015.031-11.778l-248.848 248.848c66.753 76.743 107.168 176.873 107.168 286.311 0 240.901-195.945 436.619-436.619 436.619-240.901 0-436.619-195.945-436.619-436.619s195.945-436.619 436.619-436.619c109.439 0 209.568 40.415 286.311 107.168l248.848-248.848c5.903-5.903 13.85-9.082 21.57-9.082s15.667 2.952 21.57 9.082c11.807 11.807 11.807 31.333 0 43.14zM61.19 523.381c0 207.071 168.472 375.315 375.315 375.315 207.071 0 375.315-168.472 375.315-375.315s-168.245-375.542-375.315-375.542c-206.843 0-375.315 168.472-375.315 375.542z" />
<glyph unicode="&#xe9b6;" glyph-name="dress-of-vintage-black-design-style" d="M756.79-19.785c64.195 17.561 59.635 7.146 77.864 31.235 0 0-171.542 471.493-174.148 484.042-2.149 10.344-15.491 51.613-24.476 66.275-45.234-20.649-86.748-27.929-122.408-27.929-62.517 0-107.154 21.827-123.349 31.14-8.813-10.262-24.429-58.209-26.783-69.486-2.602-12.549-174.139-484.042-174.139-484.042 18.203-24.089 13.663-13.674 77.857-31.235 64.195-17.572 5.425-7.154 30.785-19.517 25.375-12.349 52.698-3.235 52.698-3.235 52.043 1.94 22.773-1.951 34.476-8.46 11.716-6.506 44.241-3.909 44.241-3.909-1.294 6.515 7.809 7.811 7.809 7.811 57.251 0.64 35.779-8.46 39.684-11.066 3.905-2.589 35.101-5.843 35.101-5.843s31.185 3.254 35.105 5.843c3.894 2.606-17.57 11.72 39.677 11.066 0 0 9.112-1.297 7.809-7.811 0 0 32.523-2.597 44.252 3.909 11.718 6.506-17.572 10.4 34.472 8.46 0 0 27.306-9.114 52.707 3.235 25.357 12.362-33.393 1.962 30.77 19.517zM317.072 843.749c-9.106-39.042-49.868-117.982-49.868-117.982 13.019-13.015 99.442-39.888 99.749-36.438 0.857 9.536 6.935 35.577 6.935 35.577 12.489-51.352 17.188-121.424 18.573-147.477 14.854-9.304 110.606-63.385 238.803-4.82 1.001 20.809 5.462 97.299 18.832 152.297 0 0 6.076-26.021 6.939-35.577 0.312-3.448 86.746 23.423 99.754 36.438 0 0-40.782 78.941-49.894 117.982-8.587 36.851-14.794 44.348-44.646 53.825 7.76-11.987 13.445-27.739 14.206-49.194 0.422-11.972 0.2-18.056-3.633-22.051-1.919-1.979-4.48-3.075-7.232-3.075-4.282 0-7.467 2.369-11.86 5.653-6.506 4.88-16.346 12.22-32.191 14.025-5.137 0.594-9.58 1.118-13.379 1.579 9.002-32.18 17.634-57.912 20.921-62.062 2.083-2.61 2.744-5.955 1.831-9.209-1.165-4.098-3.53-12.388-62.502-34.28 7.872-17.15 12.739-30.182 13.964-33.526 0.034-0.125 0.086-0.224 0.112-0.342v0c1.51-4.389-0.801-9.179-5.195-10.715-0.924-0.319-1.865-0.478-2.806-0.478-3.47 0-6.724 2.162-7.956 5.612v0c0 0.034 0 0.065-0.037 0.099-0.594 1.611-6.215 15.778-19.521 17.115-13.585 1.355-126.843 36.737-134.635 55.235-1.527 3.599-0.997 7.521 1.372 10.499 3.293 4.157 11.918 29.889 20.908 62.067-3.788-0.465-8.229-1.001-13.355-1.579-15.86-1.822-25.7-9.162-32.223-14.007-4.398-3.289-7.579-5.649-11.854-5.649-2.757 0-5.32 1.101-7.236 3.073-3.851 3.995-4.075 10.064-3.635 22.051 0.997 27.713 10.193 45.832 21.474 58.7-6.715-2.931-13.663-5.671-20.83-7.833-34.7-10.424-40.771-16.499-49.886-55.532zM544.127 702.35c6.472 0 11.712-5.244 11.712-11.712 0-6.483-5.24-11.716-11.712-11.716-6.465 0-11.72 5.236-11.72 11.716 0.017 6.467 5.255 11.712 11.72 11.712zM544.127 629.497c6.472 0 11.712-5.244 11.712-11.716s-5.24-11.716-11.712-11.716c-6.465 0-11.72 5.244-11.72 11.716s5.255 11.716 11.72 11.716zM471.267 702.35c6.483 0 11.716-5.244 11.716-11.712 0-6.483-5.236-11.716-11.716-11.716-6.467 0-11.712 5.236-11.712 11.716 0 6.467 5.244 11.712 11.712 11.712zM471.267 629.497c6.483 0 11.716-5.244 11.716-11.716s-5.236-11.716-11.716-11.716c-6.467 0-11.712 5.244-11.712 11.716s5.244 11.716 11.712 11.716zM622.493 777.186c-7.361 9.196-24.009 70.483-25.857 77.425-3.452 0.579-2.548 0.676-1.449 0.676 0.603 0 1.286-0.030 1.286-0.030s0.052-0.215 0.164-0.648c3.332-0.534 10.704-1.518 25.857-3.259 26.421-3.019 38.434-19.609 43.112-19.609 2.356 0 2.856 4.17 2.425 16.364-0.861 24.296-8.46 40.698-19.168 53.058-5.335 6.166-11.41 11.41-17.916 15.993-19.534 13.747-34.474 42.845-34.474 42.845s-4.557-87.174-50.741-128.815c-6.655-5.985-12.86-13.118-18.823-20.589 1.604-2.136 3.159-4.35 4.704-6.53 13.473-19.023 24.72-39.735 33.177-57.404 32.081 11.955 61.761 25.415 57.703 30.524zM556.78 743.711c-7.958 16.476-18.358 35.654-30.632 53.338-1.538 2.21-3.078 4.415-4.678 6.577-0.868 1.165-1.76 2.296-2.647 3.452-0.872 1.148-1.792 2.279-2.679 3.409-6.028 7.559-12.386 14.628-19.077 20.68-3.327 2.989-6.392 6.291-9.295 9.726-20.796 24.459-31.265 58.309-36.451 83.735-4.176 20.389-5.009 35.372-5.009 35.372s-11.104-21.545-26.656-36.322c-2.511-2.378-5.111-4.617-7.82-6.519-19.523-13.749-35.788-32.62-37.091-69.051-0.437-12.177 0.065-16.364 2.434-16.364 4.682 0 16.689 16.59 43.11 19.609 15.151 1.74 22.523 2.724 25.857 3.259 0.116 0.433 0.164 0.648 0.164 0.648s0.676 0.030 1.29 0.030c1.096 0 1.999-0.099-1.454-0.676-1.861-6.926-18.5-68.213-25.857-77.425-5.236-6.564 45.199-26.854 84.844-40.108 1.251-0.418 2.498-0.851 3.719-1.251 17.813-5.847 32.953-10.096 38.943-10.702 18.427-1.839 25.823-20.473 26.615-22.568-0.665 1.755-5.645 15.263-14.068 33.472-0.56 1.247-1.191 2.556-1.794 3.859-0.594 1.273-1.139 2.494-1.768 3.818z" />
<glyph unicode="&#xe9b7;" d="M512.002-64c281.998 0 511.998 230.004 511.998 512.002s-230 511.998-511.998 511.998c-282.002 0-512.002-230-512.002-511.998s230-512.002 512.002-512.002z" />
<glyph unicode="&#xe9b8;" d="M350.468 668.66h446.99l101.432-447.734-37.146-0.188-0.886-158.078 38.286-0.2-0.246-26.414h-604.236c-57.186 4.438-52.088 106.084-55.146 133.296l50.908 455.136c0.2 20.228 21.24 44.176 60.050 44.176l-0.006 0.006z" />
<glyph unicode="&#xe9b9;" d="M350.468 668.66h42.812l-38.968-632.608h-59.662c-70.076 7.942-72.746 119.398-49.994 179.298l45.756 409.14c0.2 20.224 21.246 44.176 60.050 44.176l0.006-0.006z" />
<glyph unicode="&#xe9ba;" d="M302.436 220.978h584.864c-26.54-54.222-25.852-107.694 0-160.458h-584.864c-62.742-0.002-62.732 160.458 0 160.458z" />
<glyph unicode="&#xe9bb;" d="M259.906 176.864h611.74c-0.356-1.606-0.688-3.21-0.992-4.816h-611.916c0.362 1.626 0.744 3.236 1.168 4.816zM868.788 159.982v0c-0.194-1.606-0.356-3.21-0.498-4.816h-612.224c0.146 1.616 0.34 3.222 0.546 4.816h612.176zM867.674 143.1v0c-0.020-1.606-0.020-3.21 0-4.816h-612.258c-0.026 1.606-0.026 3.21 0 4.816h612.258zM868.3 126.23v0c0.142-1.61 0.31-3.216 0.498-4.822h-612.17c-0.21 1.6-0.394 3.206-0.55 4.822h612.222zM870.666 109.348v0c0.31-1.606 0.64-3.21 0.996-4.816h-611.724c-0.424 1.584-0.814 3.19-1.18 4.816h611.908zM874.768 92.466v0c0.472-1.606 0.97-3.21 1.49-4.816h-610.14c-0.75 1.558-1.468 3.168-2.14 4.816h610.79zM880.612 75.586v0c0.64-1.6 1.3-3.21 1.988-4.816h-604.688c-1.532 1.474-2.98 3.084-4.354 4.816h607.054z" />
<glyph unicode="&#xe9bc;" d="M480.348 138.762h91.396v-202.752l-46.076 66.142-45.314-66.142v202.752h-0.006z" />
<glyph unicode="&#xe9bd;" d="M197.904 384.956l619.608 221.644c69.404 5.754 90.188-135.436 44.67-148.76l-605.364-227.204c-34.382-12.952-67.998 42.33-70.994 96.532-1.594 28.79 6.238 27.92 39.030 40.766l-26.948 17.022z" />
<glyph unicode="&#xe9be;" d="M881.66 478.954c-3.946-10.68-10.382-18.45-19.478-21.116l-605.364-227.202c-10.528-3.966-20.984-1.526-30.51 5.314 17.176-1.72 26.566 0.562 42.906 15.974l612.446 227.030z" />
<glyph unicode="&#xe9bf;" d="M604.542 530.354c46.018-6.63 78.89-115.888 55.896-148.236l-83.662-31.398c15.176 51.242-17.894 136.642-63.86 146.83l91.626 32.804z" />
<glyph unicode="&#xe9c0;" d="M752.762 309.252l-92.324 72.866-83.662-31.398 69.86-81.192 32.274 48.236 73.852-8.512z" />
<glyph unicode="&#xe9c1;" d="M220.808 366.25l4.044 1.69c25.302-5.126 69.672-95.796 21.052-115.926-34.586-14.312-50.692 60.702-49.432 85.572 14.826 10.624 30.83-34.178 25.706-35.196l-10.266-2.030c0 0 0.314-19.61 10.266-20.962l39.712 12.852c0 0-3.226 57.81-41.076 74h-0.006z" />
<glyph unicode="&#xe9c2;" d="M363.63 187.336h510.65c3.168 11.142 7.48 22.316 12.968 33.532 0.016 0.036 0.032 0.074 0.052 0.11h-584.874c-58.052 0-62.39-137.414-13-157.914-16.724 47.324-3.362 124.272 40.084 124.272h34.12z" />
<glyph unicode="&#xe9c3;" d="M558.456 687.654l5.030-87.892c-28.58-48.442-119.808-84.398-209.63-83.484-85.598 0.866-170.044 36.38-193.262 81.108l-0.472 86.112 191.248-52.796 207.086 56.952z" />
<glyph unicode="&#xe9c4;" d="M42.136 718.234l309.23 104.468 309.234-104.468-309.234-104.464-309.23 104.464z" />
<glyph unicode="&#xe9c5;" d="M152.054 504.376l-14.158-90.662c-0.226-1.474 4.752-3.478 7.13-0.524 3.122-3.74 7.26-2.208 8.498 0.378 1.568-2.566 5.262-3.982 7.942-0.152 2.376-2.954 7.686-0.898 7.298 1.58l-14.070 89.464c-0.356 1.332-2.45 1.106-2.634-0.078l-0.006-0.006z" />
<glyph unicode="&#xe9c6;" d="M353.474 744.694c1.868 0.556 3.84-0.504 4.396-2.376 0.556-1.868-0.504-3.84-2.376-4.396l-198.886-59.798v-173.432c0-1.952-1.584-3.536-3.536-3.536s-3.536 1.584-3.536 3.536v176.060c0 1.522 0.992 2.928 2.524 3.384l201.414 60.56z" />
<glyph unicode="&#xe9c7;" d="M153.334 492.846c7.728 0 14.034 6.306 14.034 14.038s-6.306 14.032-14.034 14.032c-7.732 0-14.032-6.306-14.032-14.032 0-7.734 6.306-14.038 14.032-14.038z" />
<glyph unicode="&#xe9c8;" d="M164.714 510.456c0-5.876-3.736-10.87-8.954-12.752-1.438-0.514-2.98-0.798-4.596-0.798-0.090 0-0.178 0-0.262 0-4.622 0.090-8.676 2.492-11.054 6.090 1.412-4.91 5.434-8.718 10.47-9.826 0.97-0.21 1.982-0.326 3.022-0.326 1.070 0 2.12 0.12 3.126 0.352 6.248 1.422 10.906 7.004 10.906 13.686 0 4.008-1.678 7.618-4.364 10.178 1.086-1.952 1.71-4.202 1.71-6.6l-0.004-0.004z" />
<glyph unicode="&#xe9c9;" d="M310.458 544.852c-6.488 0-11.748 5.26-11.748 11.748v73.468l-34.29 34.272c-4.592 4.586-4.594 12.026-0.004 16.614 4.588 4.588 12.028 4.592 16.614 0.004l37.736-37.712c2.204-2.204 3.444-5.192 3.444-8.31v-78.338c-0.002-6.484-5.264-11.746-11.752-11.746z" />
<glyph unicode="&#xe9ca;" d="M713.564 544.852c-6.49 0-11.748 5.26-11.748 11.748v78.338c0 3.116 1.236 6.104 3.442 8.308l37.712 37.712c4.584 4.586 12.028 4.586 16.612 0 4.588-4.588 4.588-12.028 0-16.614l-34.27-34.27v-73.472c0-6.488-5.258-11.75-11.748-11.75z" />
<glyph unicode="&#xe9cb;" d="M785.252 706.626c13.58-13.604 13.58-35.644 0-49.248-13.604-13.58-35.644-13.58-49.248 0-13.604 13.604-13.604 35.644 0 49.248s35.644 13.604 49.248 0z" />
<glyph unicode="&#xe9cc;" d="M285.646 706.626c13.604-13.604 13.604-35.644 0-49.248-13.58-13.58-35.644-13.58-49.226 0-13.604 13.604-13.604 35.644 0 49.248 13.582 13.604 35.646 13.604 49.226 0z" />
<glyph unicode="&#xe9cd;" d="M986.852 517.784v-453.928h-261.774l-38.182 449.934v3.994z" />
<glyph unicode="&#xe9ce;" d="M337.128 517.784v-3.994l-4.206-49.578-33.976-400.356h-261.774v453.928z" />
<glyph unicode="&#xe9cf;" d="M37.172 517.784h299.956v-3.994l-4.206-49.578h-295.75z" />
<glyph unicode="&#xe9d0;" d="M986.852 517.784v-53.572h-295.75l-4.206 49.578v3.994z" />
<glyph unicode="&#xe9d1;" d="M1024 548.87v-35.784h-374.276v76.41z" />
<glyph unicode="&#xe9d2;" d="M374.276 589.496v-76.41h-374.276v35.784z" />
<glyph unicode="&#xe9d3;" d="M585.762 752.34c-15.524 0-28.154 12.63-28.154 28.154s12.63 28.154 28.154 28.154c15.522 0 28.152-12.63 28.152-28.154 0-6.488 5.258-11.748 11.748-11.748s11.748 5.26 11.748 11.748c0 28.48-23.168 51.65-51.648 51.65s-51.65-23.17-51.65-51.65 23.17-51.65 51.65-51.65c15.094 0 27.374-12.282 27.374-27.374s-12.282-27.374-27.374-27.374c-15.096 0-27.376 12.282-27.376 27.374 0 6.488-5.258 11.748-11.748 11.748s-11.748-5.26-11.748-11.748c0-28.050 22.822-50.87 50.872-50.87s50.87 22.82 50.87 50.87c0 28.050-22.82 50.87-50.87 50.87z" />
<glyph unicode="&#xe9d4;" d="M502.506 831.084h-40.12c-6.488 0-11.748-5.26-11.748-11.748s5.26-11.748 11.748-11.748h8.602l-32.308-96.49-32.308 96.49h8.6c6.488 0 11.748 5.26 11.748 11.748s-5.26 11.748-11.748 11.748h-40.12c-6.488 0-11.748-5.26-11.748-11.748s5.26-11.748 11.748-11.748h6.742l45.946-137.224c1.604-4.79 6.088-8.020 11.14-8.020 5.050 0 9.538 3.228 11.14 8.020l45.948 137.224h6.742c6.488 0 11.748 5.26 11.748 11.748-0.004 6.488-5.266 11.748-11.752 11.748z" />
<glyph unicode="&#xe9d5;" d="M247.172 589.242v-88.276c0-155.366 118.29-317.794 264.828-317.794s264.828 162.428 264.828 317.794v88.276h-529.656z" />
<glyph unicode="&#xe9d6;" d="M582.62 907.034v17.656c0 19.42-15.888 35.31-35.31 35.31h-70.62c-19.42 0-35.31-15.89-35.31-35.31v-17.656c-132.414-31.78-229.518-141.242-229.518-282.482v-35.31h600.276v35.31c0 141.242-97.104 250.704-229.518 282.482z" />
<glyph unicode="&#xe9d7;" d="M582.62 818.758c-10.594 0-17.656 7.062-17.656 17.656v52.966c0 10.594 7.062 17.656 17.656 17.656s17.656-7.062 17.656-17.656v-52.966c0-10.594-7.062-17.656-17.656-17.656z" />
<glyph unicode="&#xe9d8;" d="M441.38 818.758c-10.594 0-17.656 7.062-17.656 17.656v52.966c0 10.594 7.062 17.656 17.656 17.656s17.656-7.062 17.656-17.656v-52.966c-0.002-10.594-7.064-17.656-17.656-17.656z" />
<glyph unicode="&#xe9d9;" d="M847.448 571.586h-670.896c-10.594 0-17.656 7.062-17.656 17.656s7.062 17.656 17.656 17.656h670.896c10.594 0 17.656-7.062 17.656-17.656s-7.062-17.656-17.656-17.656z" />
<glyph unicode="&#xe9da;" d="M582.62 24.276h-141.24l70.62 158.896 70.62-158.896z" />
<glyph unicode="&#xe9db;" d="M423.724-64l17.656 88.276h141.242l17.654-88.276h-176.552z" />
<glyph unicode="&#xe9dc;" d="M323.090 287.338l-5.296 1.766-17.656-70.62 141.242-194.206 70.62 158.894c-74.152 0-141.242 42.372-188.91 104.166z" />
<glyph unicode="&#xe9dd;" d="M700.91 287.338c-47.668-61.794-114.758-104.166-188.91-104.166l70.62-158.896 141.242 194.206-17.656 70.62-5.296-1.764z" />
<glyph unicode="&#xe9de;" d="M981.628 82.538c-97.104 51.2-190.676 90.042-275.42 100.634h-8.828l-114.758-158.896 17.654-88.276h423.724v75.918c0 30.014-15.89 56.496-42.372 70.62z" />
<glyph unicode="&#xe9df;" d="M326.62 183.172h-8.828c-84.744-10.594-178.318-49.434-275.42-100.634-26.482-14.124-42.372-40.606-42.372-70.62v-75.918h423.724l17.656 88.276-114.76 158.896z" />
<glyph unicode="&#xe9e0;" d="M254.234 774.62l134.18-26.482-26.482 128.882c-44.138-24.716-81.214-60.026-107.698-102.4z" />
<glyph unicode="&#xe9e1;" d="M769.766 774.62l-134.18-26.482 26.482 128.882c44.138-24.716 81.214-60.026 107.698-102.4z" />
<glyph unicode="&#xe9e2;" d="M643.624 410.145l331.613-113.238 48.763-357.729h-496.845z" />
<glyph unicode="&#xe9e3;" d="M380.376 410.145l-331.613-113.238-48.763-357.729h496.845z" />
<glyph unicode="&#xe9e4;" d="M325.372 171.27l-276.61 125.636-48.763-357.729h496.845z" />
<glyph unicode="&#xe9e5;" d="M901.070 263.18l-257.446 143.227-26.622-112.038h-210.003l-26.622 110.566-257.446-142.888 26.622-322.869h724.895z" />
<glyph unicode="&#xe9e6;" d="M302.336 395.937l-42.995-190.281 128.968-40.17-57.084-135.311 180.776-94.075v99.69z" />
<glyph unicode="&#xe9e7;" d="M721.698 395.937l42.944-190.281-128.968-40.17 57.101-135.311-180.776-94.075v99.69z" />
<glyph unicode="&#xe9e8;" d="M689.782 767.958c0-84.823-63.884-152.225-142.719-152.225h-70.125c-78.819 0-142.719 67.402-142.719 152.225v0c0 84.857 63.884 152.225 142.719 152.225h70.125c78.819 0 142.719-67.368 142.719-152.225v0z" />
<glyph unicode="&#xe9e9;" d="M639.564 345.111h-255.129l17.015 202.967h221.098z" />
<glyph unicode="&#xe9ea;" d="M639.564 345.111h-127.97l-127.159 202.967h238.114z" />
<glyph unicode="&#xe9eb;" d="M684.268 723.863c0-149.84-75.52-285.422-172.251-285.422-96.764 0-172.251 135.582-172.251 285.422 0 149.857 75.487 174.805 172.251 174.805 96.73 0 172.251-24.948 172.251-174.805z" />
<glyph unicode="&#xe9ec;" d="M512.017 898.668c96.73 0 172.251-24.948 172.251-174.805 0-149.84-75.52-285.422-172.251-285.422z" />
<glyph unicode="&#xe9ed;" d="M507.822 41.473l-152.462 206.907-55.038 147.557 77.567 32.508 134.127-84.891 134.093 84.891 77.567-32.508-55.038-147.557-152.462-206.907-4.296-7.307z" />
<glyph unicode="&#xe9ee;" d="M512.017 343.555l134.093 84.891 77.567-32.508-55.038-147.557-152.462-206.907-4.296-7.307-4.059 7.307z" />
<glyph unicode="&#xe9ef;" d="M377.89 428.445l133.704-83.335-156.2-84.248z" />
<glyph unicode="&#xe9f0;" d="M646.11 428.445l-134.516-83.335 157.045-84.248z" />
<glyph unicode="&#xe9f1;" d="M340.73 746.579c-9.15 4.009-24.255 48.069-16.187 66.438 8.119 18.402 39.020 13.108 48.137 9.083 9.184-4.026 16.779-27.028 1.979-40.576z" />
<glyph unicode="&#xe9f2;" d="M683.202 746.968c9.184 4.042 24.373 48.086 16.322 66.455-8.068 18.352-38.919 13.041-48.103 8.998-9.15-4.042-16.812-27.079-2.013-40.576z" />
<glyph unicode="&#xe9f3;" d="M538.217 844.138c0 0 33.473-70.108 158.906-72.933 0 0 46.902 136.36-136.343 161.731l-22.563-88.798z" />
<glyph unicode="&#xe9f4;" d="M617.83 880.097c0 0-10.571-137.425-285.422-84.569 0 0-48.627 16.914-42.285 57.084 0 0 10.571-38.056 38.056-6.343 0 0 39.105 118.752 155.405 113.458s134.245-79.631 134.245-79.631z" />
<glyph unicode="&#xe9f5;" d="M617.83 880.097c0 0-10.571-137.425-285.422-84.569 0 0-48.627 16.914-42.285 57.084 0 0 10.571-38.056 38.056-6.343z" />
<glyph unicode="&#xe9f6;" d="M524.398 345.111l34.995-244.998-47.41-54.953-47.41 54.53 35.062 245.42z" />
<glyph unicode="&#xe9f7;" d="M497.217 328.197h29.599l32.576-228.084-47.41-54.953z" />
<glyph unicode="&#xe9f8;" d="M500.16 311.283l-7.341 20.99 19.163 13.159 19.163-12.787-7.341-21.362z" />
<glyph unicode="&#xe9f9;" d="M884.951 119.666c0-1.759-1.455-3.18-3.197-3.18h-187.051c-1.759 0-3.18 1.421-3.18 3.18v0c0 1.759 1.421 3.18 3.18 3.18h187.034c1.759 0 3.214-1.421 3.214-3.18v0z" />
<glyph unicode="&#xe9fa;" d="M283.663 240.887c-4.651 0-8.457 3.789-8.457 8.457v157.857c0 51.283 45.989 93.026 97.255 93.026 4.685 0 10.554-3.789 10.554-8.457s-6.918-8.457-11.62-8.457c-41.946 0-79.292-34.149-79.292-76.112v-157.857c0.017-4.668-3.755-8.457-8.44-8.457z" />
<glyph unicode="&#xe9fb;" d="M723.423 156.318c4.685 0 8.457 3.789 8.457 8.457v242.427c0 51.283-37.498 93.026-88.798 93.026-4.651 0-6.36-3.789-6.36-8.457s0.643-8.457 5.294-8.457c41.98 0 72.933-34.149 72.933-76.112v-242.427c0.017-4.668 3.823-8.457 8.474-8.457z" />
<glyph unicode="&#xe9fc;" d="M743.416 149.637c0-10.901-8.837-19.738-19.738-19.738s-19.738 8.837-19.738 19.738c0 10.901 8.837 19.738 19.738 19.738s19.738-8.837 19.738-19.738z" />
<glyph unicode="&#xe9fd;" d="M785.7 89.238c0-34.234-27.823-62.040-62.006-62.040-34.284 0-62.040 27.806-62.040 62.040 0 34.2 27.756 62.006 62.040 62.006 34.183 0 62.006-27.806 62.006-62.006z" />
<glyph unicode="&#xe9fe;" d="M679.853 133.078c24.153 24.187 63.495 24.187 87.682 0 24.221-24.221 24.187-63.545 0.034-87.715z" />
<glyph unicode="&#xe9ff;" d="M756.811 89.204c0-18.29-14.827-33.117-33.117-33.117s-33.117 14.827-33.117 33.117c0 18.29 14.827 33.117 33.117 33.117s33.117-14.827 33.117-33.117z" />
<glyph unicode="&#xea00;" d="M700.268 65.812c-12.922 12.888-12.922 33.929 0 46.818 12.922 12.956 33.929 12.922 46.851 0.034z" />
<glyph unicode="&#xea01;" d="M342.861-13.43v0l-17.506 215.652c0 18.064-15.020 32.779-33.084 32.779s-33.371-14.698-33.371-32.779l-17.523-215.652v215.652c0 27.4 23.358 49.693 50.742 49.693 27.417 0 50.742-22.276 50.742-49.693v-215.652z" />
<glyph unicode="&#xea02;" d="M255.467-8.136c0-11.231 2.74-20.347-3.704-20.347-6.41 0-11.637 9.117-11.637 20.347s5.226 20.347 11.637 20.347c6.444 0 3.704-9.117 3.704-20.347z" />
<glyph unicode="&#xea03;" d="M251.036-8.136c0-6.614-3.945-11.975-8.812-11.975s-8.812 5.361-8.812 11.975c0 6.614 3.945 11.975 8.812 11.975s8.812-5.361 8.812-11.975z" />
<glyph unicode="&#xea04;" d="M328.468-8.136c0 11.231-2.74 20.347 3.704 20.347 6.41 0 11.637-9.117 11.637-20.347s-5.226-20.347-11.637-20.347c-6.444 0-3.704 9.117-3.704 20.347z" />
<glyph unicode="&#xea05;" d="M350.489-8.136c0-6.614-3.945-11.975-8.812-11.975s-8.812 5.361-8.812 11.975c0 6.614 3.945 11.975 8.812 11.975s8.812-5.361 8.812-11.975z" />
<glyph unicode="&#xea06;" d="M816.45 209.8h16.914v-50.742h-16.914v50.742z" />
<glyph unicode="&#xea07;" d="M799.536 192.886h50.742v-16.914h-50.742v16.914z" />
<glyph unicode="&#xea08;" d="M804.175 30.985c-124.451-69.932-284.831-52.242-390.709 53.636-127.559 127.559-127.559 334.354 0 461.912s334.354 127.559 461.912 0c105.896-105.896 123.569-266.275 53.654-390.709l1.96-1.942c58.527 83.226 93.007 184.62 93.007 294.118 0 282.765-229.235 512-512 512s-512-229.235-512-512c0-282.765 229.235-512 512-512 109.497 0 210.891 34.481 294.118 93.043l-1.942 1.942z" />
<glyph unicode="&#xea09;" d="M413.466 84.621c-127.559 127.559-127.559 334.354 0 461.912s334.354 127.559 461.912 0c36.052-36.052 61.634-78.495 77.259-123.604 0.459 8.298 0.742 16.649 0.742 25.070 0 243.377-198.003 441.379-441.379 441.379s-441.379-198.003-441.379-441.379 198.003-441.379 441.379-441.379c8.422 0 16.772 0.282 25.070 0.759-45.127 15.625-87.552 41.19-123.604 77.241z" />
<glyph unicode="&#xea0a;" d="M300.138 712.828c-9.763 0-17.655-7.892-17.655-17.655v-70.621c0-9.763 7.892-17.655 17.655-17.655s17.655 7.892 17.655 17.655v70.621c0 9.763-7.892 17.655-17.655 17.655z" />
<glyph unicode="&#xea0b;" d="M224.344 513.448c-6.903 6.903-18.061 6.903-24.964 0l-44.138-44.138c-6.903-6.903-6.903-18.061 0-24.964 3.443-3.443 7.962-5.173 12.482-5.173s9.039 1.73 12.482 5.173l44.138 44.138c6.903 6.903 6.903 18.061 0 24.964z" />
<glyph unicode="&#xea0c;" d="M559.793 742.965l-35.31 35.31c-6.903 6.903-18.061 6.903-24.964 0s-6.903-18.061 0-24.964l35.31-35.31c3.443-3.443 7.962-5.173 12.482-5.173s9.039 1.73 12.482 5.173c6.903 6.903 6.903 18.061 0 24.964z" />
<glyph unicode="&#xea0d;" d="M232.483 334.212l-35.31-52.966c-5.42-8.121-3.231-19.068 4.89-24.488 3.019-1.995 6.426-2.966 9.781-2.966 5.703 0 11.317 2.754 14.707 7.857l35.31 52.966c5.42 8.121 3.231 19.068-4.89 24.488-8.157 5.42-19.085 3.231-24.488-4.89z" />
<glyph unicode="&#xea0e;" d="M875.361 546.534c-136.351 136.351-363.273 126.941-487.124-28.231-93.007-116.524-93.926-285.466-2.030-402.873 103.918-132.802 282.306-160.68 417.969-84.445l67.831-67.831c24.452-30.526 86.899-37.641 121.944-9.075 40.36 32.892 36.776 100.846 6.268 130.542l-71.203 71.203c69.932 124.451 52.242 284.831-53.654 390.709z" />
<glyph unicode="&#xea0f;" d="M900.414 41.931c0-9.751-7.904-17.655-17.655-17.655s-17.655 7.904-17.655 17.655c0 9.751 7.904 17.655 17.655 17.655s17.655-7.904 17.655-17.655z" />
<glyph unicode="&#xea10;" d="M971.034 41.931c0-9.751-7.904-17.655-17.655-17.655s-17.655 7.904-17.655 17.655c0 9.751 7.904 17.655 17.655 17.655s17.655-7.904 17.655-17.655z" />
<glyph unicode="&#xea11;" d="M935.724 77.241c0-9.751-7.904-17.655-17.655-17.655s-17.655 7.904-17.655 17.655c0 9.751 7.904 17.655 17.655 17.655s17.655-7.904 17.655-17.655z" />
<glyph unicode="&#xea12;" d="M935.724 6.621c0-9.751-7.904-17.655-17.655-17.655s-17.655 7.904-17.655 17.655c0 9.751 7.904 17.655 17.655 17.655s17.655-7.904 17.655-17.655z" />
<glyph unicode="&#xea13;" d="M617.931 500.966c0-29.252-23.713-52.966-52.966-52.966s-52.966 23.713-52.966 52.966c0 29.252 23.713 52.966 52.966 52.966s52.966-23.713 52.966-52.966z" />
<glyph unicode="&#xea14;" d="M847.448 165.517c0-29.252-23.713-52.966-52.966-52.966s-52.966 23.713-52.966 52.966c0 29.252 23.713 52.966 52.966 52.966s52.966-23.713 52.966-52.966z" />
<glyph unicode="&#xea15;" d="M847.448 377.379h-45.656l22.828 22.828c6.903 6.903 6.903 18.061 0 24.964s-18.061 6.903-24.964 0l-52.948-52.948c-1.642-1.624-2.931-3.584-3.831-5.756-1.783-4.308-1.783-9.181 0-13.489 1.783-4.326 5.226-7.768 9.551-9.551 2.154-0.9 4.449-1.359 6.744-1.359h88.276c9.763 0 17.655 7.892 17.655 17.655s-7.892 17.655-17.655 17.655z" />
<glyph unicode="&#xea16;" d="M512 236.138h-52.966c-9.763 0-17.655-7.892-17.655-17.655s7.892-17.655 17.655-17.655h35.31v-52.966c0-9.763 7.892-17.655 17.655-17.655s17.655 7.892 17.655 17.655v70.621c0 9.763-7.892 17.655-17.655 17.655z" />
<glyph unicode="&#xea17;" d="M570.138 294.276c3.443-3.443 7.962-5.173 12.482-5.173s9.039 1.73 12.482 5.173l35.31 35.31c6.903 6.903 6.903 18.061 0 24.964s-18.061 6.903-24.964 0l-35.31-35.31c-6.903-6.903-6.903-18.061 0-24.964z" />
<glyph unicode="&#xea18;" d="M635.586 324.414v-52.966c0-9.763 7.892-17.655 17.655-17.655s17.655 7.892 17.655 17.655v52.966c0 9.763-7.892 17.655-17.655 17.655s-17.655-7.892-17.655-17.655z" />
<glyph unicode="&#xea19;" d="M630.413 230.965l-35.31 35.31c-6.903 6.903-18.061 6.903-24.964 0s-6.903-18.061 0-24.964l35.31-35.31c3.443-3.443 7.962-5.173 12.482-5.173s9.039 1.73 12.482 5.173c6.903 6.903 6.903 18.061 0 24.964z" />
<glyph unicode="&#xea1a;" d="M676.070 248.62l-35.31-35.31c-6.903-6.903-6.903-18.061 0-24.964 3.443-3.443 7.962-5.173 12.482-5.173s9.039 1.73 12.482 5.173l35.31 35.31c6.903 6.903 6.903 18.061 0 24.964s-18.061 6.903-24.964 0z" />
<glyph unicode="&#xea1b;" d="M706.207 359.724c-9.763 0-17.655-7.892-17.655-17.655v-52.966c0-9.763 7.892-17.655 17.655-17.655s17.655 7.892 17.655 17.655v52.966c0 9.763-7.892 17.655-17.655 17.655z" />
<glyph unicode="&#xea1c;" d="M635.586 359.724h35.31c9.763 0 17.655 7.892 17.655 17.655s-7.892 17.655-17.655 17.655h-35.31c-9.763 0-17.655-7.892-17.655-17.655s7.892-17.655 17.655-17.655z" />
<glyph unicode="&#xea1d;" d="M555.202 255.647c8.722 4.361 12.253 14.972 7.892 23.693l-17.655 35.31c-4.378 8.722-14.972 12.235-23.693 7.892-8.722-4.361-12.253-14.972-7.892-23.693l17.655-35.31c3.107-6.179 9.34-9.746 15.819-9.746 2.648 0 5.35 0.6 7.874 1.854z" />
<glyph unicode="&#xea1e;" d="M564.966 342.069c4.52 0 9.039 1.73 12.482 5.173l17.655 17.655c6.903 6.903 6.903 18.061 0 24.964s-18.061 6.903-24.964 0l-17.655-17.655c-6.903-6.903-6.903-18.061 0-24.964 3.443-3.443 7.962-5.173 12.482-5.173z" />
<glyph unicode="&#xea1f;" d="M582.621 218.483h-17.655c-9.763 0-17.655-7.892-17.655-17.655s7.892-17.655 17.655-17.655h17.655c9.763 0 17.655 7.892 17.655 17.655s-7.892 17.655-17.655 17.655z" />
<glyph unicode="&#xea20;" d="M1023.998 448.003c0-282.768-229.229-511.997-511.997-511.997s-511.997 229.229-511.997 511.997c0 282.768 229.229 511.997 511.997 511.997s511.997-229.229 511.997-511.997z" />
<glyph unicode="&#xea21;" d="M440.637 461.141c47.57 0 95.14 0 142.706 0l0.78-9.754-69.74-105.726-74.916 106.77 1.168 8.704 0.002 0.006z" />
<glyph unicode="&#xea22;" d="M441.557 487.661l-1.236-59.638-101.18-55.328v-202.81h340.635v202.812l-94.032 58.446-5.164 59.628-139.022-3.108z" />
<glyph unicode="&#xea23;" d="M394.803 661.575c0 0-5.802 12.748-21.378 6.43-15.58-6.31 0.7-69.302 6.654-78.090 5.948-8.784 15.526-3.206 19.014-2.858 4.96-37.552 5.402-63.434 20.434-79.268 14.238-14.992 46.834-45.546 64.006-56.202 11.63-2.456 20.306-3.898 28.468-4.33 8.158 0.432 16.842 1.878 28.468 4.33 17.17 10.65 49.772 41.21 64.006 56.202 15.028 15.834 15.474 41.71 20.434 79.268 3.488-0.35 13.066-5.926 19.014 2.858 5.952 8.788 22.234 71.782 6.654 78.090-15.58 6.32-21.378-6.43-21.378-6.43s15.398 49.466-11.972 98.156c-18.756 33.372-61.534 50.68-105.224 51.95-43.69-1.27-86.468-18.578-105.224-51.95-27.37-48.692-11.972-98.156-11.972-98.156h-0.004z" />
<glyph unicode="&#xea24;" d="M390.703 410.479l24.23 9.544 19.526 17.546 68.944-52.29h17.17l68.966 52.352 43.748-27.158 76.022-129.22-60.206-326.647c-43.642-12.104-89.618-18.6-137.116-18.6-38.738 0-76.46 4.33-112.736 12.48l-107.91 322.443 99.362 139.55z" />
<glyph unicode="&#xea25;" d="M611.177 426.817l-27.834 34.324-62.762-75.864 53.872-59.86 36.724 101.4z" />
<glyph unicode="&#xea26;" d="M412.769 427.421l27.87 33.72 62.766-75.864-56.012-59.244-34.624 101.388z" />
<glyph unicode="&#xea27;" d="M412.773 427.421l-184.488-59.994c-7.502-2.434-12.214-8.814-13.742-16.558l-54.25-274.917c36.534-34.55 78.16-63.756 123.626-86.42l26.97 88.018c0.314 1.010 1.274 1.64 2.324 1.514 1.046-0.124 1.842-0.962 1.9-2.020l3.894-103.376c59.562-24.27 124.71-37.662 192.998-37.662v34.324l-99.232 457.091z" />
<glyph unicode="&#xea28;" d="M412.773 427.421l-21.13-6.492-55.98-95.518 70.67-2.214-43.386-24.702 149.060-328.169-99.234 457.095z" />
<glyph unicode="&#xea29;" d="M611.177 426.817l184.544-59.39c7.514-2.418 12.21-8.814 13.738-16.558l54.252-274.921c-36.538-34.55-78.166-63.758-123.634-86.424l-26.974 88.022c-0.31 1.010-1.28 1.64-2.324 1.514-1.046-0.124-1.834-0.966-1.896-2.020l-3.884-103.376c-59.562-24.27-124.71-37.662-192.994-37.662h-0.004v34.324l99.176 456.491z" />
<glyph unicode="&#xea2a;" d="M611.177 426.817l11.73-3.568 65.386-98.44-70.67-2.218 43.39-24.704-149.012-327.561 99.176 456.489z" />
<glyph unicode="&#xea2b;" d="M532.911-27.526c-6.222 0-11.266-5.032-11.266-11.232 0-6.21 5.048-11.24 11.266-11.24s11.266 5.032 11.266 11.24c0 6.204-5.048 11.232-11.266 11.232z" />
<glyph unicode="&#xea2c;" d="M615.755 646.847l10.856 0.38 3.494 12.388 10.226 10.204c6.754 50.856 8.744 130.006-41.734 127.722 0 0-4.552 57.712-95.602 46.4-91.056-11.316-132.196-70.096-127.294-119.136 4.898-49.040 2.924-54.98 2.924-54.98l10.226-10.208 1.542-14.092 8.93 0.564c0 0 2.8 18.862 5.602 27.158 2.804 8.294 1.926 25.086 1.926 25.086s107.548-6.852 136.612 30.118c17.95 22.83 59.174 62.388 61.25 7.604 0.616-16.246-5.424-40.596 6.134-58.318 11.562-17.724 4.904-30.886 4.904-30.886h0.004v-0.004z" />
<glyph unicode="&#xea2d;" d="M512.001-29.67l29.072 133.808-19.756 263.761 10.764 4.594-11.506 12.782h-17.17l-11.8-12.484 11.076-4.894-19.262-265.895 28.582-131.672z" />
<glyph unicode="&#xea2e;" d="M531.909-27.526c-5.666 0-10.266-4.58-10.266-10.23 0-5.656 4.598-10.24 10.266-10.24 5.662 0 10.266 4.582 10.266 10.24 0 5.648-4.604 10.23-10.266 10.23z" />
<glyph unicode="&#xea2f;" d="M692.791 141.866c-19.98 3.45-33.38 22.446-29.934 42.42 3.45 19.976 22.446 33.386 42.42 29.938 19.98-3.45 33.38-22.45 29.934-42.43-3.45-19.974-22.446-33.38-42.424-29.93l0.004 0.002z" />
<glyph unicode="&#xea30;" d="M693.153 143.974c-18.816 3.25-31.436 21.13-28.186 39.952 3.25 18.818 21.136 31.44 39.956 28.194 18.816-3.25 31.436-21.14 28.186-39.956-3.25-18.822-21.136-31.436-39.956-28.186v-0.004z" />
<glyph unicode="&#xea31;" d="M695.781 159.188c-10.408 1.794-17.392 11.7-15.598 22.11 1.794 10.412 11.7 17.392 22.106 15.598 10.412-1.798 17.396-11.69 15.598-22.106-1.794-10.408-11.696-17.392-22.106-15.598v-0.004z" />
<glyph unicode="&#xea32;" d="M698.031 194.845l8.406-1.452 4.52 26.18-8.406 1.452-4.52-26.18z" />
<glyph unicode="&#xea33;" d="M416.481 134.604l15.752 3.126c6.694 1.332 12.236 5.27 15.774 10.558 3.528 5.288 5.062 11.914 3.73 18.61l-18.526 93.334c-6.994 35.22-34.546 53.18-66.030 57.162-12.064 1.526-24.712 0.97-36.966-1.456-12.264-2.426-24.152-6.738-34.714-12.752-27.508-15.668-46.046-42.756-39.044-78.032l18.526-93.338c1.332-6.694 5.278-12.232 10.562-15.77l0.014 0.004c5.288-3.538 11.906-5.062 18.6-3.734l15.744 3.126-1.288 6.492-15.748-3.126c-4.908-0.974-9.77 0.15-13.644 2.734l0.004 0.004c-3.876 2.596-6.772 6.658-7.748 11.562l-18.526 93.338c-6.354 32.010 10.632 56.682 35.802 71.008 9.948 5.67 21.166 9.736 32.746 12.034 11.58 2.294 23.504 2.812 34.868 1.376 28.818-3.642 54.018-19.962 60.356-51.91l18.53-93.338c0.97-4.904-0.154-9.762-2.742-13.644-2.596-3.872-6.658-6.768-11.568-7.738l-15.752-3.126 1.288-6.492v-0.010z" />
<glyph unicode="&#xea34;" d="M438.209 246.401l-2.83 14.256c-7.206 36.312-35.554 54.82-67.922 58.918-12.298 1.552-25.178 0.996-37.662-1.482-12.484-2.47-24.602-6.87-35.364-12.994-28.292-16.112-47.348-44.004-40.128-80.38l2.834-14.256 10.812 2.152-2.83 14.256c-6.134 30.916 10.336 54.786 34.722 68.672 9.748 5.548 20.74 9.53 32.094 11.782 11.35 2.254 23.040 2.76 34.174 1.354 27.922-3.528 52.334-19.3 58.464-50.164l2.83-14.256 10.806 2.142z" />
<glyph unicode="&#xea35;" d="M307.409 111.528l8.428 1.674c2.116-2.374 5.39-3.592 8.726-2.932 5.014 0.996 8.272 5.864 7.276 10.882-0.992 5.010-5.864 8.268-10.878 7.272-3.344-0.66-5.9-3.042-6.944-6.042l-8.422-1.67 1.82-9.18-0.006-0.004z" />
<glyph unicode="&#xea36;" d="M423.177 134.506l-8.418-1.674c-1.046-2.998-3.602-5.376-6.94-6.042-5.014-0.992-9.882 2.262-10.878 7.28-0.992 5.010 2.262 9.882 7.272 10.874 3.338 0.66 6.616-0.564 8.722-2.932l8.422 1.674 1.82-9.18z" />
<glyph unicode="&#xea37;" d="M334.917 318.935l-3.214 16.192-12.772-2.536 3.25-16.352c2.434 0.71 4.898 1.314 7.386 1.808 1.774 0.354 3.554 0.644 5.35 0.888z" />
<glyph unicode="&#xea38;" d="M321.133 120.538c1.516 0.3 2.502 1.78 2.2 3.29-0.3 1.518-1.768 2.506-3.29 2.206-1.518-0.3-2.502-1.776-2.2-3.29s1.772-2.506 3.29-2.2v-0.006z" />
<glyph unicode="&#xea39;" d="M404.439 137.106c1.514 0.3 2.496 1.776 2.196 3.286-0.3 1.522-1.768 2.506-3.29 2.206-1.518-0.3-2.502-1.776-2.2-3.294 0.296-1.516 1.772-2.5 3.294-2.198z" />
<glyph unicode="&#xea3a;" d="M694.759 159.364c-9.846 1.698-16.448 11.060-14.752 20.912 1.698 9.842 11.054 16.448 20.902 14.746 9.846-1.698 16.452-11.060 14.752-20.902-1.702-9.846-11.064-16.452-20.906-14.756h0.004z" />
<glyph unicode="&#xea3b;" d="M412.863 422.565c-0.282-0.004-99.72-0.828-82.924-87.824l-9.248-1.768c-18.934 98.076 91.748 98.98 92.062 98.984l0.11-9.392z" />
<glyph unicode="&#xea3c;" d="M611.287 431.513c16.224-0.438 47.584-4.86 71.724-34.222 23.622-28.734 40.182-81.504 27.8-178.256l-9.322 1.178c11.986 93.644-3.502 144.064-25.73 171.108-21.718 26.422-50.036 30.404-64.686 30.798l0.22 9.394h-0.006z" />
<glyph unicode="&#xea3d;" d="M511.998 960c282.772 0 512.002-229.23 512.002-511.998 0-282.776-229.23-512.002-512.002-512.002s-511.998 229.226-511.998 512.002c0 282.768 229.23 511.998 511.998 511.998z" />
<glyph unicode="&#xea3e;" d="M601.648 338.62l182.606-258.502h-34.868l-237.388 242.618 89.65 15.884z" />
<glyph unicode="&#xea3f;" d="M749.39 80.122l-237.388 242.618 26.106 4.626 211.282-247.244z" />
<glyph unicode="&#xea40;" d="M422.358 338.62l-182.606-258.502h34.864l237.388 242.618-89.646 15.884z" />
<glyph unicode="&#xea41;" d="M274.614 80.122l237.388 242.618-26.106 4.626-211.282-247.244z" />
<glyph unicode="&#xea42;" d="M489.068 324.588h45.87l-9.636-339.482h-26.6l-9.63 339.482h-0.004z" />
<glyph unicode="&#xea43;" d="M498.54 324.588h26.922l-5.654-339.482h-15.61l-5.658 339.482z" />
<glyph unicode="&#xea44;" d="M141.526 854.996h740.954c15.924 0 28.954-13.026 28.954-28.946v-468.47h-798.854v468.47c0 15.92 13.030 28.946 28.95 28.946h-0.004z" />
<glyph unicode="&#xea45;" d="M148.85 822.020h726.306v-455.668h-726.306v455.668z" />
<glyph unicode="&#xea46;" d="M78.466 374.678h867.072c2.77 0 5.028-2.258 5.028-5.028v-67.12h-877.122v67.12c0 2.77 2.258 5.028 5.028 5.028h-0.006z" />
<glyph unicode="&#xea47;" d="M158.216 813.69h707.568v-439.012h-707.568v439.012z" />
<glyph unicode="&#xea48;" d="M73.44 315.23h877.12v-12.696h-877.12v12.696z" />
<glyph unicode="&#xea49;" d="M650.666 397.374h185.16v-22.692h-185.16v22.692z" />
<glyph unicode="&#xea4a;" d="M650.666 397.374h185.16v10.468h-185.16v-10.468z" />
<glyph unicode="&#xea4b;" d="M659.388 425.292h167.71c4.794 0 8.722-3.924 8.722-8.726v-8.726h-185.16v8.726c0 4.798 3.924 8.726 8.722 8.726h0.006z" />
</font>
</defs>
</svg>
